Arvo Part – Collage – Neeme Jarvi, Philharmonia Orchestra & Chorus (1993) {Chandos CHAN 9134}

Download
Arvo Part - Collage - Neeme Jarvi, Philharmonia Orchestra & Chorus (1993) {Chandos CHAN 9134}

Arvo Part – Collage – Neeme Jarvi, Philharmonia Orchestra & Chorus (1993) {Chandos CHAN 9134}
EAC rip (secure mode) | FLAC (tracks)+CUE+LOG -> 269 Mb | MP3 @320 -> 147 Mb
Full Artwork @ 600 dpi (png) -> 59 Mb | 5% repair rar
© 1993 Chandos Records | CHAN 9134
Classical / Contemporary Classical / Orchestral / Symphony / Choral

For all of those who look for early works of Pärt this is a precious recording. I believe there are a lot of people who don’t find much appeal in Pärt’s late repetitive, mystic works for the very same reasons others prefer them. So what’s up here is that Pärt has a few lesser known works before, say, his third symphony which are the "opposite" of the mentioned above. Those who are found of Schnittke will surely appreciate this. The most remarkable composition in this record is maybe the "Credo" for piano mixed choir and orchestra. It consists of 13 minutes of duel between the forces of the past (represented by Bach’s well known motifs) and the eruptive resources of modernist aleatoric clusters of sound. So, pools of beautiful passages are interrupted by (or combined with) destructive (or desconstructive) interventions of the orchestra till the whole, peaking sometimes the frenetic, becomes yet a powerful block of distinctive sound.

In spite of this chaotic character the music is full of imaginative textures never becoming static and confusing. What’s impressive is that this work is from 1968! The 2nd symphony, even earlier, although not so exuberant also offers similar processes, sometimes with strong percussion, and includes an unexpected romantic melodic passage by the end which, no matter how much ironic it may be intended, moves the listener by moments to another atmosphere. (The 1st symphony may be found on "Searching for roots" compilation by Virgin with works of Tüur and Tubin). "Collage sur B-A-C-H" is better known and so are the remaining works which are more recent. It must be said that the commented works here, exploring most of the times the technique of "appropriation", may belong to Pärt’s youth searching period and maybe discussable as not as relevant as his mystic late works – but they are surely very refreshing for all who enjoy the fruitful style of 60’s modernism and want to know the other face of Pärt.

Arvo Part - Collage - Neeme Jarvi, Philharmonia Orchestra & Chorus (1993) {Chandos CHAN 9134}

gramophone.co.uk INFO

Personnel:
Arvo Pärt [b. 1935] (composer)

Boris Berman (piano)
Philharmonia Chorus
Philharmonia Orchestra
Neeme Järvi
(conductor)

Arvo Part - Collage - Neeme Jarvi, Philharmonia Orchestra & Chorus (1993) {Chandos CHAN 9134}

tracklist:
01 – Collage Sur B-A-C-H – I. Tocatta. Preciso
02 – Collage Sur B-A-C-H – II. Sarabande. Lento
03 – Collage Sur B-A-C-H – III. Ricercar. Deciso
04 – Summa
05 – Wenn Bach Bienen Gezuchtet Hatte
06 – Fratres
07 – Symphony No. 2 – I
08 – Symphony No. 2 – II
09 – Symphony No. 2 – III
10 – Festina Lente
11 – Credo

EAC log
Exact Audio Copy V1.0 beta 3 from 29. August 2011

EAC extraction logfile from 17. December 2011, 16:17

Arvo Part / Collage – Neeme Jarvi, Philharmonia Orchestra & Chorus

Used drive : HL-DT-STDVDRAM GSA-H10N Adapter: 6 ID: 0

Read mode : Secure
Utilize accurate stream : Yes
Defeat audio cache : Yes
Make use of C2 pointers : No

Read offset correction : 667
Overread into Lead-In and Lead-Out : No
Fill up missing offset samples with silence : Yes
Delete leading and trailing silent blocks : No
Null samples used in CRC calculations : Yes
Used interface : Native Win32 interface for Win NT & 2000
Gap handling : Appended to previous track

Used output format : User Defined Encoder
Selected bitrate : 768 kBit/s
Quality : High
Add ID3 tag : No
Command line compressor : C:Program Files (x86)Exact Audio CopyFLACFLAC.EXE
Additional command line options : -8 -V -T "ARTIST=%artist%" -T "TITLE=%title%" -T "ALBUM=%albumtitle%" -T "DATE=%year%" -T "TRACKNUMBER=%tracknr%" -T "TOTALTRACKS=%numtracks%" -T "GENRE=%genre%" -T "ALBUMARTIST=%albumartist%" -T "ALBUM ARTIST=%albumartist%" -T "COMMENT=EAC Secure Mode, Test & Copy, AccurateRip, FLAC -8" %source%

TOC of the extracted CD

Track | Start | Length | Start sector | End sector
––––––––––––––––––––––––––––-
1 | 0:00.00 | 2:45.20 | 0 | 12394
2 | 2:45.20 | 3:33.25 | 12395 | 28394
3 | 6:18.45 | 1:32.42 | 28395 | 35336
4 | 7:51.12 | 4:18.73 | 35337 | 54759
5 | 12:10.10 | 7:34.37 | 54760 | 88846
6 | 19:44.47 | 10:00.33 | 88847 | 133879
7 | 29:45.05 | 6:52.67 | 133880 | 164846
8 | 36:37.72 | 3:06.55 | 164847 | 178851
9 | 39:44.52 | 4:45.68 | 178852 | 200294
10 | 44:30.45 | 5:53.07 | 200295 | 226776
11 | 50:23.52 | 12:38.03 | 226777 | 283629

Track 1

Filename L:eacrip1 – Collage Sur B-A-C-H – I. Tocatta. Preciso.wav

Pre-gap length 0:00:02.00

Peak level 81.8 %
Extraction speed 4.2 X
Track quality 100.0 %
Test CRC DD6377F9
Copy CRC DD6377F9
Accurately ripped (confidence 2) [B9EAD192] (AR v1)
Copy OK

Track 2

Filename L:eacrip2 – Collage Sur B-A-C-H – II. Sarabande. Lento.wav

Pre-gap length 0:00:02.23

Peak level 65.3 %
Extraction speed 4.7 X
Track quality 100.0 %
Test CRC 81921502
Copy CRC 81921502
Accurately ripped (confidence 2) [C611C8C6] (AR v1)
Copy OK

Track 3

Filename L:eacrip3 – Collage Sur B-A-C-H – III. Ricercar. Deciso.wav

Pre-gap length 0:00:02.30

Peak level 80.2 %
Extraction speed 4.1 X
Track quality 100.0 %
Test CRC 97A0639C
Copy CRC 97A0639C
Accurately ripped (confidence 2) [92CCD022] (AR v1)
Copy OK

Track 4

Filename L:eacrip4 – Summa.wav

Pre-gap length 0:00:06.20

Peak level 17.8 %
Extraction speed 4.6 X
Track quality 99.9 %
Test CRC 463081D7
Copy CRC 463081D7
Accurately ripped (confidence 2) [BA96BFF5] (AR v1)
Copy OK

Track 5

Filename L:eacrip5 – Wenn Bach Bienen Gezuchtet Hatte.wav

Pre-gap length 0:00:05.30

Peak level 76.7 %
Extraction speed 5.8 X
Track quality 99.9 %
Test CRC 04614264
Copy CRC 04614264
Accurately ripped (confidence 2) [547569C5] (AR v1)
Copy OK

Track 6

Filename L:eacrip6 – Fratres.wav

Pre-gap length 0:00:06.45

Peak level 54.7 %
Extraction speed 7.4 X
Track quality 100.0 %
Test CRC 9BA4FED7
Copy CRC 9BA4FED7
Accurately ripped (confidence 2) [5494EE03] (AR v1)
Copy OK

Track 7

Filename L:eacrip7 – Symphony No. 2 – I.wav

Pre-gap length 0:00:08.70

Peak level 91.2 %
Extraction speed 7.7 X
Track quality 100.0 %
Test CRC DBD425E0
Copy CRC DBD425E0
Accurately ripped (confidence 2) [6EB1106F] (AR v1)
Copy OK

Track 8

Filename L:eacrip8 – Symphony No. 2 – II.wav

Pre-gap length 0:00:04.70

Peak level 100.0 %
Extraction speed 7.4 X
Track quality 100.0 %
Test CRC 0081587A
Copy CRC 0081587A
Accurately ripped (confidence 2) [00AB7644] (AR v1)
Copy OK

Track 9

Filename L:eacrip9 – Symphony No. 2 – III.wav

Peak level 97.7 %
Extraction speed 8.2 X
Track quality 100.0 %
Test CRC 501E964F
Copy CRC 501E964F
Accurately ripped (confidence 2) [2B5C506D] (AR v1)
Copy OK

Track 10

Filename L:eacrip10 – Festina Lente.wav

Pre-gap length 0:00:08.13

Peak level 54.4 %
Extraction speed 8.6 X
Track quality 100.0 %
Test CRC A06743C8
Copy CRC A06743C8
Accurately ripped (confidence 2) [3BEC1A21] (AR v1)
Copy OK

Track 11

Filename L:eacrip11 – Credo.wav

Pre-gap length 0:00:09.22

Peak level 97.7 %
Extraction speed 9.8 X
Track quality 100.0 %
Test CRC 89D9AE88
Copy CRC 89D9AE88
Accurately ripped (confidence 2) [58E80B5D] (AR v1)
Copy OK

All tracks accurately ripped

No errors occurred

End of status report

==== Log checksum 948FF01C9088DD78F44F120F49EFABB9C7548E9FA8B81A96C58B33A91E09202A ====

Arvo Part - Collage - Neeme Jarvi, Philharmonia Orchestra & Chorus (1993) {Chandos CHAN 9134}

More Arvo Pärt:
Arvo Part – Berliner Messe, Magnificat Antiphons and other works (2014) {Hyperion}
Arvo Part – Creator Spiritus (2012) {Harmonia Mundi SACD Hybrid}
Arvo Part – Kanon Pokajanen (1998) [2CD] {ECM New Series 1654/55}
Arvo Part – Choral & Instrumental Works (2004) {EMI Virgin 2CD Set}
Arvo Part – Te Deum (2012) {Nikolic, Netherlands Chamber Choir & Orchestra, Risto Joost – Globe GLO 5252}

Arvo Part – Litany (1996) {ECM New Series 1592}
Arvo Part – Musica Selecta (2015) {2CD ECM New Series 2454/55}
Arvo Part – Summa – Estonian National Symphony Orchestra – Paavo Järvi (2002) {Virgin Classics}
Arvo Part – Triodion and Other Choral Works – Polyphony / Stephen Layton (2003) {Hyperion SACD Hybrid SACDA67375}
Arvo Pärt – Arbos (1987) {ECM New Series 1325}

Arvo Part – Choral Works – Stephen Layton, Polyphony (2014) {Hyperion – CDA68056}
Arvo Part – Tintinnabuli – Peter Phillips, The Tallis Scholars (2015) {Gimel Records CDGIM 049}
Arvo Part – Passacaglia – The Kristjan Jarvi Sound Project (2015) {Naive V 5425}

NEXT -> More Arvo Pärt on the way…

===

Arvo Part – Collage – Neeme Jarvi, Philharmonia Orchestra & Chorus (1993) {Chandos CHAN 9134} Download, Warez, DDL, Free, Full Album, Torrent, Legal.

Download