Arturo Toscanini – Wagner: Die Meistersinger von Nürnberg (2016)

Download
Arturo Toscanini - Wagner: Die Meistersinger von Nürnberg (2016)

Arturo Toscanini – Wagner: Die Meistersinger von Nürnberg (2016)
EAC Rip | FLAC (Tracks) +cue, log, artworks – 1.33 GB | MP3 CBR 320 kbps – 751 MB | 05:27:03
Classical, Opera | Label: Immortal Performances | Release Year: 2016

This five-CD set from andante presents the highly sought-after version of Wagner’s "Die Meistersinger von Nürnberg" recorded live at the 1937 Salzburg Festival, with Arturo Toscanini conducting and a cast including Hans Hermann Nissen as Hans Sachs and Maria Reining as Eva. With the Nazi annexation of Austria to follow the next year, Toscanini – a dedicated anti-fascist – would never return to Salzburg. This recording captures both the Maestro and the Salzburg Festival at a fraught moment in history, and the electricity in the air and in the music-making was captured by Austrian Radio’s experimental Selenophone audio film system.

TRACKLIST

CD1

01. Prelude
02. Da zu dir der Heiland kam
03. Verweilt! – Ein Wort!
04. Da wär der Ritter
05. David! Was stehst¿
06. Mein Herr! Der Singer Meisterschlag
07. Der Meister Tön’ und Weisen
08. Seid meiner Treue wohl versehen
09. Zu einer Freiung und Zunftberathung
10. Das schöne Fest
11. Verzeiht, vielleicht schon ginget
12. Am stillen Herd in Winterszeit
13. Was euch zum Leide Richt’ und Schnur
14. Fanget an!
15. Halt Meister! Nicht so geeilt!

EAC
Exact Audio Copy V1.0 beta 3 from 29. August 2011

EAC extraction logfile from 31. January 2017, 22:45

Arturo Toscanini / Die Meistersinger Von Nürnberg

Used drive : ASUS BC-12B1ST b Adapter: 1 ID: 0

Read mode : Secure
Utilize accurate stream : Yes
Defeat audio cache : Yes
Make use of C2 pointers : No

Read offset correction : 6
Overread into Lead-In and Lead-Out : No
Fill up missing offset samples with silence : Yes
Delete leading and trailing silent blocks : No
Null samples used in CRC calculations : Yes
Used interface : Native Win32 interface for Win NT & 2000
Gap handling : Appended to previous track

Used output format : User Defined Encoder
Selected bitrate : 1024 kBit/s
Quality : High
Add ID3 tag : No
Command line compressor : C:Program Files (x86)Exact Audio CopyFlacflac.exe
Additional command line options : -8 -V -T "artist=%artist%" -T "title=%title%" -T "album=%albumtitle%" -T "date=%year%" -T "tracknumber=%tracknr%" -T "genre=%genre%" -5 %source%

TOC of the extracted CD

Track | Start | Length | Start sector | End sector
––––––––––––––––––––––––––––-
1 | 0:00.03 | 9:04.53 | 3 | 40855
2 | 9:04.56 | 3:28.43 | 40856 | 56498
3 | 12:33.24 | 5:24.32 | 56499 | 80830
4 | 17:57.56 | 3:03.55 | 80831 | 94610
5 | 21:01.36 | 1:56.45 | 94611 | 103355
6 | 22:58.06 | 2:43.34 | 103356 | 115614
7 | 25:41.40 | 9:10.48 | 115615 | 156912
8 | 34:52.13 | 4:21.29 | 156913 | 176516
9 | 39:13.42 | 2:52.26 | 176517 | 189442
10 | 42:05.68 | 6:08.74 | 189443 | 217116
11 | 48:14.67 | 8:22.28 | 217117 | 254794
12 | 56:37.20 | 6:50.40 | 254795 | 285584
13 | 63:27.60 | 3:08.02 | 285585 | 299686
14 | 66:35.62 | 5:17.54 | 299687 | 323515
15 | 71:53.41 | 7:27.71 | 323516 | 357111

Track 1

Filename E:MusicflacArturo ToscaniniDie Meistersinger Von Nürnberg1 Prelude.wav

Pre-gap length 0:00:02.04

Peak level 95.4 %
Extraction speed 3.8 X
Track quality 100.0 %
Test CRC C52C3682
Copy CRC C52C3682
Track not present in AccurateRip database
Copy OK

Track 2

Filename E:MusicflacArturo ToscaniniDie Meistersinger Von Nürnberg2 Da zu dir der Heiland kam.wav

Peak level 56.0 %
Extraction speed 1.4 X
Track quality 100.0 %
Test CRC 391BD093
Copy CRC 391BD093
Track not present in AccurateRip database
Copy OK

Track 3

Filename E:MusicflacArturo ToscaniniDie Meistersinger Von Nürnberg3 Verweilt! – Ein Wort!.wav

Peak level 46.6 %
Extraction speed 1.6 X
Track quality 100.0 %
Test CRC B550507F
Copy CRC B550507F
Track not present in AccurateRip database
Copy OK

Track 4

Filename E:MusicflacArturo ToscaniniDie Meistersinger Von Nürnberg4 Da wär der Ritter.wav

Peak level 45.2 %
Extraction speed 1.5 X
Track quality 100.0 %
Test CRC 557102BB
Copy CRC 557102BB
Track not present in AccurateRip database
Copy OK

Track 5

Filename E:MusicflacArturo ToscaniniDie Meistersinger Von Nürnberg5 David! Was stehst.wav

Peak level 48.5 %
Extraction speed 1.4 X
Track quality 100.0 %
Test CRC 21ABB780
Copy CRC 21ABB780
Track not present in AccurateRip database
Copy OK

Track 6

Filename E:MusicflacArturo ToscaniniDie Meistersinger Von Nürnberg6 Mein Herr! Der Singer Meisterschlag.wav

Peak level 52.2 %
Extraction speed 1.6 X
Track quality 100.0 %
Test CRC 146B5563
Copy CRC 146B5563
Track not present in AccurateRip database
Copy OK

Track 7

Filename E:MusicflacArturo ToscaniniDie Meistersinger Von Nürnberg7 Der Meister Tön’ und Weisen.wav

Peak level 70.3 %
Extraction speed 1.9 X
Track quality 100.0 %
Test CRC 2BB58E2B
Copy CRC 2BB58E2B
Track not present in AccurateRip database
Copy OK

Track 8

Filename E:MusicflacArturo ToscaniniDie Meistersinger Von Nürnberg8 Seid meiner Treue wohl versehen.wav

Peak level 51.8 %
Extraction speed 1.9 X
Track quality 100.0 %
Test CRC 8F8A9834
Copy CRC 8F8A9834
Track not present in AccurateRip database
Copy OK

Track 9

Filename E:MusicflacArturo ToscaniniDie Meistersinger Von Nürnberg9 Zu einer Freiung und Zunftberathung.wav

Peak level 58.0 %
Extraction speed 1.9 X
Track quality 100.0 %
Test CRC 1C8D3C78
Copy CRC 1C8D3C78
Track not present in AccurateRip database
Copy OK

Track 10

Filename E:MusicflacArturo ToscaniniDie Meistersinger Von Nürnberg10 Das schöne Fest.wav

Peak level 82.4 %
Extraction speed 2.2 X
Track quality 100.0 %
Test CRC 3832F8B9
Copy CRC 3832F8B9
Track not present in AccurateRip database
Copy OK

Track 11

Filename E:MusicflacArturo ToscaniniDie Meistersinger Von Nürnberg11 Verzeiht, vielleicht schon ginget.wav

Peak level 68.8 %
Extraction speed 2.3 X
Track quality 100.0 %
Test CRC FE5E10B2
Copy CRC FE5E10B2
Track not present in AccurateRip database
Copy OK

Track 12

Filename E:MusicflacArturo ToscaniniDie Meistersinger Von Nürnberg12 Am stillen Herd in Winterszeit.wav

Peak level 64.8 %
Extraction speed 2.4 X
Track quality 100.0 %
Test CRC B974D286
Copy CRC B974D286
Track not present in AccurateRip database
Copy OK

Track 13

Filename E:MusicflacArturo ToscaniniDie Meistersinger Von Nürnberg13 Was euch zum Leide Richt’ und Schnur.wav

Peak level 55.1 %
Extraction speed 2.3 X
Track quality 100.0 %
Test CRC 2D35EC08
Copy CRC 2D35EC08
Track not present in AccurateRip database
Copy OK

Track 14

Filename E:MusicflacArturo ToscaniniDie Meistersinger Von Nürnberg14 Fanget an!.wav

Peak level 68.2 %
Extraction speed 2.2 X
Track quality 99.9 %
Test CRC 1123FB5D
Copy CRC 1123FB5D
Track not present in AccurateRip database
Copy OK

Track 15

Filename E:MusicflacArturo ToscaniniDie Meistersinger Von Nürnberg15 Halt Meister! Nicht so geeilt!.wav

Peak level 88.4 %
Extraction speed 2.7 X
Track quality 100.0 %
Test CRC 8E91AD83
Copy CRC 8E91AD83
Track not present in AccurateRip database
Copy OK

None of the tracks are present in the AccurateRip database

No errors occurred

End of status report

==== Log checksum CE3C2DACEDF78A443C1BD9BB945C5339659B65208594CAA6B9F6A4F6D70A554D ====

CD2

01. Johanistag! Johanistag!
02. Will Einer Selt’nes wagen
03. Was duftet doch der Flieder
04. Gut ‘n Abend, Meister!
05. Ach ja, Hast Recht! ‘s ist im Kopf mir kraus
06. Das dacht’ ich wohl
07. Ein Meistersinger muss er sein
08. Hört, ihr Leut’, und laßt
09. Jerum! Jerum!
10. Oha! Wollt mich beim
11. Den Tag seh’ ich erscheinen
12. Sed ihr nun fertig¿
13. Hört ihr Leut’

EAC
Exact Audio Copy V1.0 beta 3 from 29. August 2011

EAC extraction logfile from 1. February 2017, 7:59

Arturo Toscanini / Die Meistersinger Von Nürnberg

Used drive : ASUS BC-12B1ST b Adapter: 1 ID: 0

Read mode : Secure
Utilize accurate stream : Yes
Defeat audio cache : Yes
Make use of C2 pointers : No

Read offset correction : 6
Overread into Lead-In and Lead-Out : No
Fill up missing offset samples with silence : Yes
Delete leading and trailing silent blocks : No
Null samples used in CRC calculations : Yes
Used interface : Native Win32 interface for Win NT & 2000
Gap handling : Appended to previous track

Used output format : User Defined Encoder
Selected bitrate : 1024 kBit/s
Quality : High
Add ID3 tag : No
Command line compressor : C:Program Files (x86)Exact Audio CopyFlacflac.exe
Additional command line options : -8 -V -T "artist=%artist%" -T "title=%title%" -T "album=%albumtitle%" -T "date=%year%" -T "tracknumber=%tracknr%" -T "genre=%genre%" -5 %source%

TOC of the extracted CD

Track | Start | Length | Start sector | End sector
––––––––––––––––––––––––––––-
1 | 0:00.02 | 4:33.31 | 2 | 20507
2 | 4:33.33 | 6:07.33 | 20508 | 48065
3 | 10:40.66 | 5:18.22 | 48066 | 71937
4 | 15:59.13 | 4:56.64 | 71938 | 94201
5 | 20:56.02 | 3:25.39 | 94202 | 109615
6 | 24:21.41 | 3:20.06 | 109616 | 124621
7 | 27:41.47 | 3:24.40 | 124622 | 139961
8 | 31:06.12 | 3:07.66 | 139962 | 154052
9 | 34:14.03 | 6:20.64 | 154053 | 182616
10 | 40:34.67 | 6:33.40 | 182617 | 212131
11 | 47:08.32 | 4:37.71 | 212132 | 232977
12 | 51:46.28 | 3:37.19 | 232978 | 249271
13 | 55:23.47 | 2:21.14 | 249272 | 259860

Track 1

Filename E:MusicflacArturo ToscaniniDie Meistersinger Von Nürnberg1 Johanistag! Johanistag!.wav

Pre-gap length 0:00:02.02

Peak level 48.4 %
Extraction speed 2.1 X
Track quality 100.0 %
Test CRC E2CCFEBB
Copy CRC E2CCFEBB
Track not present in AccurateRip database
Copy OK

Track 2

Filename E:MusicflacArturo ToscaniniDie Meistersinger Von Nürnberg2 Will Einer Selt’nes wagen.wav

Peak level 47.7 %
Extraction speed 1.4 X
Track quality 100.0 %
Test CRC 1EA0B292
Copy CRC 1EA0B292
Track not present in AccurateRip database
Copy OK

Track 3

Filename E:MusicflacArturo ToscaniniDie Meistersinger Von Nürnberg3 Was duftet doch der Flieder.wav

Peak level 51.6 %
Extraction speed 1.5 X
Track quality 100.0 %
Test CRC E8E23ED0
Copy CRC E8E23ED0
Track not present in AccurateRip database
Copy OK

Track 4

Filename E:MusicflacArturo ToscaniniDie Meistersinger Von Nürnberg4 Gut ‘n Abend, Meister!.wav

Peak level 46.9 %
Extraction speed 1.6 X
Track quality 100.0 %
Test CRC 9CBB0FA5
Copy CRC 9CBB0FA5
Track not present in AccurateRip database
Copy OK

Track 5

Filename E:MusicflacArturo ToscaniniDie Meistersinger Von Nürnberg5 Ach ja, Hast Recht! ‘s ist im Kopf mir kraus.wav

Peak level 50.0 %
Extraction speed 1.4 X
Track quality 99.9 %
Test CRC FDC5F512
Copy CRC FDC5F512
Track not present in AccurateRip database
Copy OK

Track 6

Filename E:MusicflacArturo ToscaniniDie Meistersinger Von Nürnberg6 Das dacht’ ich wohl.wav

Peak level 40.5 %
Extraction speed 1.7 X
Track quality 100.0 %
Test CRC 21973001
Copy CRC 21973001
Track not present in AccurateRip database
Copy OK

Track 7

Filename E:MusicflacArturo ToscaniniDie Meistersinger Von Nürnberg7 Ein Meistersinger muss er sein.wav

Peak level 39.2 %
Extraction speed 1.5 X
Track quality 99.9 %
Test CRC 4CE68350
Copy CRC 4CE68350
Track not present in AccurateRip database
Copy OK

Track 8

Filename E:MusicflacArturo ToscaniniDie Meistersinger Von Nürnberg8 Hört, ihr Leut’, und laßt.wav

Peak level 54.2 %
Extraction speed 1.5 X
Track quality 99.9 %
Test CRC A50C2978
Copy CRC A50C2978
Track not present in AccurateRip database
Copy OK

Track 9

Filename E:MusicflacArturo ToscaniniDie Meistersinger Von Nürnberg9 Jerum! Jerum!.wav

Peak level 69.4 %
Extraction speed 2.0 X
Track quality 100.0 %
Test CRC 2DCCEFF4
Copy CRC 2DCCEFF4
Track not present in AccurateRip database
Copy OK

Track 10

Filename E:MusicflacArturo ToscaniniDie Meistersinger Von Nürnberg10 Oha! Wollt mich beim.wav

Peak level 58.0 %
Extraction speed 2.1 X
Track quality 100.0 %
Test CRC 0761C23A
Copy CRC 0761C23A
Track not present in AccurateRip database
Copy OK

Track 11

Filename E:MusicflacArturo ToscaniniDie Meistersinger Von Nürnberg11 Den Tag seh’ ich erscheinen.wav

Peak level 52.3 %
Extraction speed 2.2 X
Track quality 100.0 %
Test CRC B84EB9F3
Copy CRC B84EB9F3
Track not present in AccurateRip database
Copy OK

Track 12

Filename E:MusicflacArturo ToscaniniDie Meistersinger Von Nürnberg12 Sed ihr nun fertig.wav

Peak level 79.1 %
Extraction speed 2.1 X
Track quality 100.0 %
Test CRC 62357941
Copy CRC 62357941
Track not present in AccurateRip database
Copy OK

Track 13

Filename E:MusicflacArturo ToscaniniDie Meistersinger Von Nürnberg13 Hört ihr Leut’.wav

Peak level 62.9 %
Extraction speed 2.0 X
Track quality 100.0 %
Test CRC ECE664D8
Copy CRC ECE664D8
Track not present in AccurateRip database
Copy OK

None of the tracks are present in the AccurateRip database

No errors occurred

End of status report

==== Log checksum 5E2338DDC99185991BBB341F1A2E89A6ACB6C5BEC617471C284E7F381CC7B203 ====

CD3

01. Prelude
02. Gleich! Meister! Hier!
03. Am Jordan Sankt Johannes stand
04. Wahn! Wahn! Überall Wahn!
05. Grüß Gott, mein Junker
06. Mein Freund, in holder Jugendzeit
07. Morgenlich leuchtend im rosigen Schein
08. Das war ein Stollen
09. Scene 3; Ein Werbelied! Von Sachs¿
10. Das Gedicht¿ Hier ließ ich’s fand
11. So ganz boshaft doch Keinen ich fand
12. Weilten die Sterne
13. O Sachs! Mein Freund! Du theurer Mann!

EAC
Exact Audio Copy V1.0 beta 3 from 29. August 2011

EAC extraction logfile from 1. February 2017, 21:42

Arturo Toscanini / Die Meistersinger Von Nürnberg

Used drive : ASUS BC-12B1ST b Adapter: 1 ID: 0

Read mode : Secure
Utilize accurate stream : Yes
Defeat audio cache : Yes
Make use of C2 pointers : No

Read offset correction : 6
Overread into Lead-In and Lead-Out : No
Fill up missing offset samples with silence : Yes
Delete leading and trailing silent blocks : No
Null samples used in CRC calculations : Yes
Used interface : Native Win32 interface for Win NT & 2000
Gap handling : Appended to previous track

Used output format : User Defined Encoder
Selected bitrate : 1024 kBit/s
Quality : High
Add ID3 tag : No
Command line compressor : C:Program Files (x86)Exact Audio CopyFlacflac.exe
Additional command line options : -8 -V -T "artist=%artist%" -T "title=%title%" -T "album=%albumtitle%" -T "date=%year%" -T "tracknumber=%tracknr%" -T "genre=%genre%" -5 %source%

TOC of the extracted CD

Track | Start | Length | Start sector | End sector
––––––––––––––––––––––––––––-
1 | 0:00.46 | 7:10.68 | 46 | 32363
2 | 7:11.39 | 4:10.39 | 32364 | 51152
3 | 11:22.03 | 3:31.52 | 51153 | 67029
4 | 14:53.55 | 6:49.63 | 67030 | 97767
5 | 21:43.43 | 4:26.23 | 97768 | 117740
6 | 26:09.66 | 5:11.20 | 117741 | 141085
7 | 31:21.11 | 0:37.05 | 141086 | 143865
8 | 31:58.16 | 11:53.32 | 143866 | 197372
9 | 43:51.48 | 3:43.50 | 197373 | 214147
10 | 47:35.23 | 6:13.74 | 214148 | 242196
11 | 53:49.22 | 5:02.04 | 242197 | 264850
12 | 58:51.26 | 3:42.05 | 264851 | 281505
13 | 62:33.31 | 3:16.06 | 281506 | 296211

Track 1

Filename E:MusicflacArturo ToscaniniDie Meistersinger Von Nürnberg1 Prelude.wav

Pre-gap length 0:00:02.61

Peak level 61.9 %
Extraction speed 2.1 X
Track quality 99.9 %
Test CRC 8B52D2B0
Copy CRC 8B52D2B0
Track not present in AccurateRip database
Copy OK

Track 2

Filename E:MusicflacArturo ToscaniniDie Meistersinger Von Nürnberg2 Gleich! Meister! Hier!.wav

Peak level 62.3 %
Extraction speed 1.4 X
Track quality 100.0 %
Test CRC 67E59731
Copy CRC 67E59731
Track not present in AccurateRip database
Copy OK

Track 3

Filename E:MusicflacArturo ToscaniniDie Meistersinger Von Nürnberg3 Am Jordan Sankt Johannes stand.wav

Peak level 53.5 %
Extraction speed 1.4 X
Track quality 100.0 %
Test CRC 31A27C04
Copy CRC 31A27C04
Track not present in AccurateRip database
Copy OK

Track 4

Filename E:MusicflacArturo ToscaniniDie Meistersinger Von Nürnberg4 Wahn! Wahn! Überall Wahn!.wav

Peak level 78.0 %
Extraction speed 1.7 X
Track quality 100.0 %
Test CRC B54E8A8B
Copy CRC B54E8A8B
Track not present in AccurateRip database
Copy OK

Track 5

Filename E:MusicflacArturo ToscaniniDie Meistersinger Von Nürnberg5 Grüß Gott, mein Junker.wav

Peak level 48.1 %
Extraction speed 1.7 X
Track quality 100.0 %
Test CRC CA7A054E
Copy CRC CA7A054E
Track not present in AccurateRip database
Copy OK

Track 6

Filename E:MusicflacArturo ToscaniniDie Meistersinger Von Nürnberg6 Mein Freund, in holder Jugendzeit.wav

Peak level 41.9 %
Extraction speed 1.8 X
Track quality 100.0 %
Test CRC A28B8811
Copy CRC A28B8811
Track not present in AccurateRip database
Copy OK

Track 7

Filename E:MusicflacArturo ToscaniniDie Meistersinger Von Nürnberg7 Morgenlich leuchtend im rosigen Schein.wav

Peak level 28.8 %
Extraction speed 1.0 X
Track quality 100.0 %
Test CRC A0F0044D
Copy CRC A0F0044D
Track not present in AccurateRip database
Copy OK

Track 8

Filename E:MusicflacArturo ToscaniniDie Meistersinger Von Nürnberg8 Das war ein Stollen.wav

Peak level 48.1 %
Extraction speed 2.0 X
Track quality 99.9 %
Test CRC F86B150B
Copy CRC F86B150B
Track not present in AccurateRip database
Copy OK

Track 9

Filename E:MusicflacArturo ToscaniniDie Meistersinger Von Nürnberg9 Scene 3- Ein Werbelied! Von Sachs.wav

Peak level 45.6 %
Extraction speed 2.0 X
Track quality 100.0 %
Test CRC DE324315
Copy CRC DE324315
Track not present in AccurateRip database
Copy OK

Track 10

Filename E:MusicflacArturo ToscaniniDie Meistersinger Von Nürnberg10 Das Gedicht Hier ließ ich’s fand.wav

Peak level 59.4 %
Extraction speed 2.2 X
Track quality 100.0 %
Test CRC DFB06F99
Copy CRC DFB06F99
Track not present in AccurateRip database
Copy OK

Track 11

Filename E:MusicflacArturo ToscaniniDie Meistersinger Von Nürnberg11 So ganz boshaft doch Keinen ich fand.wav

Peak level 43.0 %
Extraction speed 2.3 X
Track quality 100.0 %
Test CRC E15C7150
Copy CRC E15C7150
Track not present in AccurateRip database
Copy OK

Track 12

Filename E:MusicflacArturo ToscaniniDie Meistersinger Von Nürnberg12 Weilten die Sterne.wav

Peak level 59.4 %
Extraction speed 1.9 X
Track quality 99.9 %
Test CRC 19CA939F
Copy CRC 19CA939F
Track not present in AccurateRip database
Copy OK

Track 13

Filename E:MusicflacArturo ToscaniniDie Meistersinger Von Nürnberg13 O Sachs! Mein Freund! Du theurer Mann!.wav

Peak level 60.6 %
Extraction speed 2.3 X
Track quality 100.0 %
Test CRC 789EEB0B
Copy CRC 789EEB0B
Track not present in AccurateRip database
Copy OK

None of the tracks are present in the AccurateRip database

No errors occurred

End of status report

==== Log checksum BB8B4FFD23DE59FE90D116D5CB0D4D49E2B9FDD6D864CB37ACE1199EA05CD184 ====

CD4

01. Ein Kind ward hier geboren
02. Slig, wie die Sonne
03. Sankt Krispin, lobet ihn
04. Mäßiges Walzer – Zeitmaß; Ihr tanzt¿
05. Die Meistersinger! Die Meistersinger!
06. Wach’ auf! es nahet gen den Tag
07. Euch macht ihr’s leicht
08. O Sachs! Mein Freund!
09. Morgen ich leuchte in rosigem Schein
10. Das Lied, fürwahr
11. Morgenlich leuchtend im rosigen Schein
12. Verachtet mir die Meister nicht
13. Ehrt eure deutschen Meister

EAC
Exact Audio Copy V1.0 beta 3 from 29. August 2011

EAC extraction logfile from 1. February 2017, 23:02

Arturo Toscanini / Die Meistersinger Von Nürnberg

Used drive : ASUS BC-12B1ST b Adapter: 1 ID: 0

Read mode : Secure
Utilize accurate stream : Yes
Defeat audio cache : Yes
Make use of C2 pointers : No

Read offset correction : 6
Overread into Lead-In and Lead-Out : No
Fill up missing offset samples with silence : Yes
Delete leading and trailing silent blocks : No
Null samples used in CRC calculations : Yes
Used interface : Native Win32 interface for Win NT & 2000
Gap handling : Appended to previous track

Used output format : User Defined Encoder
Selected bitrate : 1024 kBit/s
Quality : High
Add ID3 tag : No
Command line compressor : C:Program Files (x86)Exact Audio CopyFlacflac.exe
Additional command line options : -8 -V -T "artist=%artist%" -T "title=%title%" -T "album=%albumtitle%" -T "date=%year%" -T "tracknumber=%tracknr%" -T "genre=%genre%" -5 %source%

TOC of the extracted CD

Track | Start | Length | Start sector | End sector
––––––––––––––––––––––––––––-
1 | 0:00.00 | 3:45.02 | 0 | 16876
2 | 3:45.02 | 6:30.72 | 16877 | 46198
3 | 10:15.74 | 3:29.34 | 46199 | 61907
4 | 13:45.33 | 2:07.18 | 61908 | 71450
5 | 15:52.51 | 3:52.64 | 71451 | 88914
6 | 19:45.40 | 2:52.00 | 88915 | 101814
7 | 22:37.40 | 4:01.54 | 101815 | 119943
8 | 26:39.19 | 3:19.03 | 119944 | 134871
9 | 29:58.22 | 3:10.34 | 134872 | 149155
10 | 33:08.56 | 4:24.05 | 149156 | 168960
11 | 37:32.61 | 7:02.37 | 168961 | 200647
12 | 44:35.23 | 4:12.66 | 200648 | 219613
13 | 48:48.14 | 2:21.31 | 219614 | 230219

Track 1

Filename E:MusicflacArturo ToscaniniDie Meistersinger Von Nürnberg1 Ein Kind ward hier geboren.wav

Pre-gap length 0:00:02.00

Peak level 33.6 %
Extraction speed 3.5 X
Track quality 100.0 %
Test CRC FC2A8C6E
Copy CRC FC2A8C6E
Track not present in AccurateRip database
Copy OK

Track 2

Filename E:MusicflacArturo ToscaniniDie Meistersinger Von Nürnberg2 Slig, wie die Sonne.wav

Peak level 37.5 %
Extraction speed 1.4 X
Track quality 100.0 %
Test CRC 029BC00F
Copy CRC 029BC00F
Track not present in AccurateRip database
Copy OK

Track 3

Filename E:MusicflacArturo ToscaniniDie Meistersinger Von Nürnberg3 Sankt Krispin, lobet ihn.wav

Peak level 49.9 %
Extraction speed 1.2 X
Track quality 99.9 %
Test CRC 4EBB1162
Copy CRC 4EBB1162
Track not present in AccurateRip database
Copy OK

Track 4

Filename E:MusicflacArturo ToscaniniDie Meistersinger Von Nürnberg4 Mäßiges Walzer – Zeitmaß- Ihr tanzt.wav

Peak level 60.2 %
Extraction speed 1.3 X
Track quality 100.0 %
Test CRC 464BD3A5
Copy CRC 464BD3A5
Track not present in AccurateRip database
Copy OK

Track 5

Filename E:MusicflacArturo ToscaniniDie Meistersinger Von Nürnberg5 Die Meistersinger! Die Meistersinger!.wav

Peak level 77.2 %
Extraction speed 1.5 X
Track quality 100.0 %
Test CRC 5F9696D5
Copy CRC 5F9696D5
Track not present in AccurateRip database
Copy OK

Track 6

Filename E:MusicflacArturo ToscaniniDie Meistersinger Von Nürnberg6 Wach’ auf! es nahet gen den Tag.wav

Peak level 94.7 %
Extraction speed 1.3 X
Track quality 99.9 %
Test CRC 9935B585
Copy CRC 9935B585
Track not present in AccurateRip database
Copy OK

Track 7

Filename E:MusicflacArturo ToscaniniDie Meistersinger Von Nürnberg7 Euch macht ihr’s leicht.wav

Peak level 73.6 %
Extraction speed 1.7 X
Track quality 100.0 %
Test CRC FAA57F46
Copy CRC FAA57F46
Track not present in AccurateRip database
Copy OK

Track 8

Filename E:MusicflacArturo ToscaniniDie Meistersinger Von Nürnberg8 O Sachs! Mein Freund!.wav

Peak level 45.8 %
Extraction speed 1.7 X
Track quality 100.0 %
Test CRC 3B147DB2
Copy CRC 3B147DB2
Track not present in AccurateRip database
Copy OK

Track 9

Filename E:MusicflacArturo ToscaniniDie Meistersinger Von Nürnberg9 Morgen ich leuchte in rosigem Schein.wav

Peak level 45.1 %
Extraction speed 1.7 X
Track quality 100.0 %
Test CRC E7B8823B
Copy CRC E7B8823B
Track not present in AccurateRip database
Copy OK

Track 10

Filename E:MusicflacArturo ToscaniniDie Meistersinger Von Nürnberg10 Das Lied, fürwahr.wav

Peak level 72.3 %
Extraction speed 1.9 X
Track quality 100.0 %
Test CRC C5661148
Copy CRC C5661148
Track not present in AccurateRip database
Copy OK

Track 11

Filename E:MusicflacArturo ToscaniniDie Meistersinger Von Nürnberg11 Morgenlich leuchtend im rosigen Schein.wav

Pre-gap length 0:00:00.01

Peak level 70.0 %
Extraction speed 2.1 X
Track quality 100.0 %
Test CRC F66ED0D2
Copy CRC F66ED0D2
Track not present in AccurateRip database
Copy OK

Track 12

Filename E:MusicflacArturo ToscaniniDie Meistersinger Von Nürnberg12 Verachtet mir die Meister nicht.wav

Peak level 74.2 %
Extraction speed 2.1 X
Track quality 100.0 %
Test CRC 07270697
Copy CRC 07270697
Track not present in AccurateRip database
Copy OK

Track 13

Filename E:MusicflacArturo ToscaniniDie Meistersinger Von Nürnberg13 Ehrt eure deutschen Meister.wav

Peak level 90.8 %
Extraction speed 1.5 X
Track quality 99.9 %
Test CRC EA1DB9A2
Copy CRC EA1DB9A2
Track not present in AccurateRip database
Copy OK

None of the tracks are present in the AccurateRip database

No errors occurred

End of status report

–– CUETools DB Plugin V2.1.3

[CTDB TOCID: ofMkjNAgbdPuGcyW_aLhOKGQ4cs-] disk not present in database, Submit result: ofMkjNAgbdPuGcyW_aLhOKGQ4cs- has been uploaded

==== Log checksum 49E5AA43C681084382BE39B461787F1726555E7A078107B78DBA700A8B9B39A1 ====

CD5

01. Act I Prelude
02. Act III Prelude
03. Scene 1, Gleich! Meister! Hier!
04. Am jordan Sankt Johannes stand
05. Wahn, Wahn! Überall Wahn!
06. Scene 2, Grüß Gott, mein Junker
07. Mein Freund, in holder Jugenzeit
08. Morgenlich leuchtend im rosigen Schein
09. Sei euch vertraut
10. Dann That und Wort
11. Scene 3, Das Lied
12. Morgenlich leuchtend
13. Ehrt eure deutschen Meister
14. Choral Finale; Ehrt eure deitschen Meister
15. Quintent – Act III with Lotte Lehmann, Laholm, Hofmann, Thorborg, Wernigk

EAC
Exact Audio Copy V1.0 beta 3 from 29. August 2011

EAC extraction logfile from 2. February 2017, 8:17

Arturo Toscanini / Die Meistersinger Von Nürnberg

Used drive : ASUS BC-12B1ST b Adapter: 1 ID: 0

Read mode : Secure
Utilize accurate stream : Yes
Defeat audio cache : Yes
Make use of C2 pointers : No

Read offset correction : 6
Overread into Lead-In and Lead-Out : No
Fill up missing offset samples with silence : Yes
Delete leading and trailing silent blocks : No
Null samples used in CRC calculations : Yes
Used interface : Native Win32 interface for Win NT & 2000
Gap handling : Appended to previous track

Used output format : User Defined Encoder
Selected bitrate : 1024 kBit/s
Quality : High
Add ID3 tag : No
Command line compressor : C:Program Files (x86)Exact Audio CopyFlacflac.exe
Additional command line options : -8 -V -T "artist=%artist%" -T "title=%title%" -T "album=%albumtitle%" -T "date=%year%" -T "tracknumber=%tracknr%" -T "genre=%genre%" -5 %source%

TOC of the extracted CD

Track | Start | Length | Start sector | End sector
––––––––––––––––––––––––––––-
1 | 0:00.41 | 9:03.34 | 41 | 40799
2 | 9:04.00 | 6:59.15 | 40800 | 72239
3 | 16:03.15 | 4:00.09 | 72240 | 90248
4 | 20:03.24 | 3:27.26 | 90249 | 105799
5 | 23:30.50 | 6:35.26 | 105800 | 135450
6 | 30:06.01 | 4:17.41 | 135451 | 154766
7 | 34:23.42 | 4:58.55 | 154767 | 177171
8 | 39:22.22 | 2:23.14 | 177172 | 187910
9 | 41:45.36 | 4:38.21 | 187911 | 208781
10 | 46:23.57 | 4:40.27 | 208782 | 229808
11 | 51:04.09 | 4:19.00 | 229809 | 249233
12 | 55:23.09 | 7:25.04 | 249234 | 282612
13 | 62:48.13 | 4:07.39 | 282613 | 301176
14 | 66:55.52 | 2:37.22 | 301177 | 312973
15 | 69:32.74 | 3:26.13 | 312974 | 328436

Track 1

Filename E:MusicflacArturo ToscaniniDie Meistersinger Von Nürnberg1 Act I Prelude.wav

Pre-gap length 0:00:02.54

Peak level 92.9 %
Extraction speed 2.2 X
Track quality 99.9 %
Test CRC 918BF978
Copy CRC 918BF978
Track not present in AccurateRip database
Copy OK

Track 2

Filename E:MusicflacArturo ToscaniniDie Meistersinger Von Nürnberg2 Act III Prelude.wav

Peak level 35.0 %
Extraction speed 1.5 X
Track quality 100.0 %
Test CRC 0F53171A
Copy CRC 0F53171A
Track not present in AccurateRip database
Copy OK

Track 3

Filename E:MusicflacArturo ToscaniniDie Meistersinger Von Nürnberg3 Scene 1, Gleich! Meister! Hier!.wav

Peak level 34.7 %
Extraction speed 1.6 X
Track quality 100.0 %
Test CRC 85A63D5B
Copy CRC 85A63D5B
Track not present in AccurateRip database
Copy OK

Track 4

Filename E:MusicflacArturo ToscaniniDie Meistersinger Von Nürnberg4 Am jordan Sankt Johannes stand.wav

Peak level 47.5 %
Extraction speed 1.6 X
Track quality 100.0 %
Test CRC 49E38CCB
Copy CRC 49E38CCB
Track not present in AccurateRip database
Copy OK

Track 5

Filename E:MusicflacArturo ToscaniniDie Meistersinger Von Nürnberg5 Wahn, Wahn! Überall Wahn!.wav

Peak level 55.0 %
Extraction speed 1.8 X
Track quality 100.0 %
Test CRC C6679F22
Copy CRC C6679F22
Track not present in AccurateRip database
Copy OK

Track 6

Filename E:MusicflacArturo ToscaniniDie Meistersinger Von Nürnberg6 Scene 2, Grüß Gott, mein Junker.wav

Peak level 63.3 %
Extraction speed 1.9 X
Track quality 100.0 %
Test CRC AD612028
Copy CRC AD612028
Track not present in AccurateRip database
Copy OK

Track 7

Filename E:MusicflacArturo ToscaniniDie Meistersinger Von Nürnberg7 Mein Freund, in holder Jugenzeit.wav

Peak level 60.4 %
Extraction speed 2.0 X
Track quality 100.0 %
Test CRC 8CA1F7DF
Copy CRC 8CA1F7DF
Track not present in AccurateRip database
Copy OK

Track 8

Filename E:MusicflacArturo ToscaniniDie Meistersinger Von Nürnberg8 Morgenlich leuchtend im rosigen Schein.wav

Peak level 48.6 %
Extraction speed 1.8 X
Track quality 100.0 %
Test CRC 8383540E
Copy CRC 8383540E
Track not present in AccurateRip database
Copy OK

Track 9

Filename E:MusicflacArturo ToscaniniDie Meistersinger Von Nürnberg9 Sei euch vertraut.wav

Peak level 50.1 %
Extraction speed 2.1 X
Track quality 100.0 %
Test CRC 0722331E
Copy CRC 0722331E
Track not present in AccurateRip database
Copy OK

Track 10

Filename E:MusicflacArturo ToscaniniDie Meistersinger Von Nürnberg10 Dann That und Wort.wav

Peak level 79.0 %
Extraction speed 2.1 X
Track quality 100.0 %
Test CRC 2BD378E0
Copy CRC 2BD378E0
Track not present in AccurateRip database
Copy OK

Track 11

Filename E:MusicflacArturo ToscaniniDie Meistersinger Von Nürnberg11 Scene 3, Das Lied.wav

Peak level 53.3 %
Extraction speed 2.2 X
Track quality 100.0 %
Test CRC 5BFDE2D2
Copy CRC 5BFDE2D2
Track not present in AccurateRip database
Copy OK

Track 12

Filename E:MusicflacArturo ToscaniniDie Meistersinger Von Nürnberg12 Morgenlich leuchtend.wav

Peak level 77.8 %
Extraction speed 2.4 X
Track quality 100.0 %
Test CRC 1790D9C0
Copy CRC 1790D9C0
Track not present in AccurateRip database
Copy OK

Track 13

Filename E:MusicflacArturo ToscaniniDie Meistersinger Von Nürnberg13 Ehrt eure deutschen Meister.wav

Peak level 65.1 %
Extraction speed 2.4 X
Track quality 100.0 %
Test CRC 5D2C9E38
Copy CRC 5D2C9E38
Track not present in AccurateRip database
Copy OK

Track 14

Filename E:MusicflacArturo ToscaniniDie Meistersinger Von Nürnberg14 Choral Finale- Ehrt eure deitschen Meister.wav

Peak level 90.6 %
Extraction speed 2.2 X
Track quality 100.0 %
Test CRC 157B8321
Copy CRC 157B8321
Track not present in AccurateRip database
Copy OK

Track 15

Filename E:MusicflacArturo ToscaniniDie Meistersinger Von Nürnberg15 Quintent – Act III with Lotte Lehmann, Laholm, Hofmann, Thorborg, Wernigk.wav

Peak level 58.9 %
Extraction speed 2.0 X
Track quality 99.9 %
Test CRC 4A21E82D
Copy CRC 4A21E82D
Track not present in AccurateRip database
Copy OK

None of the tracks are present in the AccurateRip database

No errors occurred

End of status report

==== Log checksum 70BABF563DBD9C74EAECB0C032D65A3015727FBA8FE7D488308287EEE089D21C ====

All thanks go to the original releaser

Arturo Toscanini – Wagner: Die Meistersinger von Nürnberg (2016) Download, Warez, DDL, Free, Full Album, Torrent, Legal.

Download