Arthur Louis featuring Eric Clapton – Knockin' On Heaven's Door (1976) Remastered Reissue 2000

Download
Arthur Louis featuring Eric Clapton - Knockin' On Heaven's Door (1976) Remastered Reissue 2000

Arthur Louis featuring Eric Clapton – Knockin’ On Heaven’s Door (1976) Reissue 2000
EAC | FLAC | Image (Cue&Log) ~ 293 Mb (incl 5%) | Mp3 (CBR320) ~ 122 Mb (incl 5%) | Scans included
Electric Blues, Blues Rock, Reggae Pop | Label: Music Avenue | # 250043 | Time: 00:36:02

After scoring a hit with "I shot The Sheriff" ERIC CLAPTON, recorded an album with Jamaican-born ARTHUR LOUIS, who at the time was one of the few authentic reggae artists residing in the UK. One of the songs Eric Clapton recorded for Arthur’s album was a reggae version of the DYLAN tune ‘Knockin’ On Heaven’s Door’. The interpretation so much caught Eric’s attention that a few months later he decided to record the same song for himself, using Arthur Louis identical arrangement, and scoring – once again – a substantial hit. Arthur Louis’ album was released in Japan in 1976 but remained unavailable in Europe until now. ‘Knockin’ On Heaven’s Door’ isn’t a pure reggae album. Reggae influences are evidently present but as a whole the album is a homogeneous blend of reggae, blues and R&B, probably due to Arthur’s lengthy residence in New York, as well as to Clapton’s "guitar-print".

For Knockin’ on Heaven’s Door, reggae singer Arthur Louis welcomes rock guitar great Eric Clapton, who plays on nearly all of the album’s songs, including the Bob Dylan-penned title track that he originally set to a reggae beat. However, the album really lives and dies with Louis, who is generally up to the task.

Review by Steve Huey, Allmusic.com

Arthur Louis Website
Arthur Louis Wiki

Tracklist:

01. Come And Love Me (03:28)
02. The Dealer (03:58)
03. Knockin’ On Heaven’s Door (03:30)
04. Got Out And Make It Happen (03:35)
05. It Feels Good (03:41)
06. Been On The Road Too Long (04:01)
07. Train 444 (03:27)
08. Someone Like You (04:41)
09. Plum (Instrumental) (05:06)

EAC log
Exact Audio Copy V1.0 beta 3 from 29. August 2011

Отчёт EAC об извлечении, выполненном 25. апреля 2013, 22:45

Arthur Louis feat. Eric Clapton / Knockin’ On Heaven’s Door

Дисковод: SONY CD-RW CRX230ED Adapter: 0 ID: 1

Режим чтения : Достоверность
Использование точного потока : Да
Отключение кэша аудио : Да
Использование указателей C2 : Нет

Коррекция смещения при чтении : 6
Способность читать области Lead-in и Lead-out : Нет
Заполнение пропущенных сэмплов тишиной : Да
Удаление блоков с тишиной в начале и конце : Нет
При вычислениях CRC использовались нулевые сэмплы : Да
Интерфейс : Установленный внешний ASPI-интерфейс

Выходной формат : Внутренние WAV-операции
Формат сэмплов : 44.100 Гц; 16 бит; стерео

TOC извлечённого CD

Трек | Старт | Длительность | Начальный сектор | Конечный сектор
––––––––––––––––––––––––––––––––––-
1 | 0:00.00 | 3:33.03 | 0 | 15977
2 | 3:33.03 | 4:02.26 | 15978 | 34153
3 | 7:35.29 | 3:34.65 | 34154 | 50268
4 | 11:10.19 | 3:38.05 | 50269 | 66623
5 | 14:48.24 | 3:45.48 | 66624 | 83546
6 | 18:33.72 | 4:03.62 | 83547 | 101833
7 | 22:37.59 | 3:31.05 | 101834 | 117663
8 | 26:08.64 | 4:46.40 | 117664 | 139153
9 | 30:55.29 | 5:06.70 | 139154 | 162173

Характеристики диапазона извлечения и сообщения об ошибках

Выбранный диапазон

Имя файла E:MusicCDTorrentArthur Louis feat. Eric Clapton – Knockin’ On Heaven’s DoorArthur Louis feat. Eric Clapton – Knockin’ On Heaven’s Door.wav

Пиковый уровень 100.0 %
Скорость извлечения 7.2 X
Качество диапазона 99.9 %
CRC теста 459944F4
CRC копии 459944F4
Копирование… OK

Ошибок не произошло

AccurateRip: сводка

Трек 1 отсутствует в базе данных
Трек 2 отсутствует в базе данных
Трек 3 отсутствует в базе данных
Трек 4 отсутствует в базе данных
Трек 5 отсутствует в базе данных
Трек 6 отсутствует в базе данных
Трек 7 отсутствует в базе данных
Трек 8 отсутствует в базе данных
Трек 9 отсутствует в базе данных

Ни одного трека нет в базе AccurateRip

Конец отчёта

==== Контрольная сумма отчёта C1CB8D040D34FD1D4759B9697AFB55B33BDB00BFB5FF8DDED424EDA29B741837 ====

DR log
foobar2000 1.2 / Dynamic Range Meter 1.1.1
log date: 2013-05-06 16:17:51

––––––––––––––––––––––––––––––––––––––––
Analyzed: Arthur Louis feat. Eric Clapton / Knockin’ On Heaven’s Door
––––––––––––––––––––––––––––––––––––––––

DR Peak RMS Duration Track
––––––––––––––––––––––––––––––––––––––––
DR12 0.00 dB -13.86 dB 3:33 01-Come And Love Me
DR12 -0.42 dB -14.82 dB 4:02 02-The Dealer
DR12 -1.30 dB -15.66 dB 3:35 03-Knockin’ On Heaven’s Door
DR12 -0.20 dB -15.35 dB 3:38 04-Got Out And Make It Happen
DR13 0.00 dB -15.54 dB 3:46 05-It Feels Good
DR11 -0.29 dB -15.63 dB 4:04 06-Been On The Road Too Long
DR11 -1.47 dB -14.92 dB 3:31 07-Train 444
DR12 -1.62 dB -16.35 dB 4:47 08-Someone Like You
DR13 -2.39 dB -17.69 dB 5:07 09-Plum (Instrumental)
––––––––––––––––––––––––––––––––––––––––

Number of tracks: 9
Official DR value: DR12

Samplerate: 44100 Hz
Channels: 2
Bits per sample: 16
Bitrate: 951 kbps
Codec: FLAC
================================================================================

Arthur Louis featuring Eric Clapton - Knockin' On Heaven's Door (1976) Remastered Reissue 2000

Arthur Louis featuring Eric Clapton - Knockin' On Heaven's Door (1976) Remastered Reissue 2000

All thanks to original releaser – squirr

More interesting music in My Blog

Arthur Louis featuring Eric Clapton – Knockin' On Heaven's Door (1976) Remastered Reissue 2000 Download, Warez, DDL, Free, Full Album, Torrent, Legal.

Download