Art Pepper – The Return Of Art Pepper – The Complete Art Pepper Aladdin Recordings, Vol. 1 (1957) {Blue Note 46863 rel 1988}

Download
Art Pepper - The Return Of Art Pepper - The Complete Art Pepper Aladdin Recordings, Vol. 1 (1957) {Blue Note 46863 rel 1988}

Art Pepper – The Return Of Art Pepper – The Complete Art Pepper Aladdin Recordings, Vol. 1 (1957) {Blue Note 46863 rel 1988}
EAC rip (secure mode) | FLAC (tracks)+CUE+LOG -> 392 Mb | MP3 @320 -> 164 Mb
Full Artwork @ 600 dpi (jpg) -> 50 Mb | 5% repair rar
© 1957, 1988 Blue Note / EMI-Manhattan Records | CDP 7 46863 2
Jazz / Bop / Cool / West Coast Jazz / Saxophone

Blue Note’s The Return of Art Pepper: The Complete Art Pepper Aladdin Recordings compiles the 13 final masters that the alto saxophonist recorded for Aladdin between August 1956 and January 1957. These are titled The Return of Art Pepper, since they were recorded shortly after he completed a jail sentence in 1956. As a result, Pepper’s chops are a little rusty, but you can hear that he still has a passion for playing, and he does improve over the course of these tracks. For serious Pepper fans, it’s worth a listen, but for less dedicated fans, there are better places to become acquainted with his work.

Personnel:
Songs 1-10

Art Pepper – alto sax
Jack Sheldon – trumpet
Russ Freeman – piano
Leroy Vinnegar – bass
Shelly Manne – drums

Recorded at Capitol Studios in Los Angeles in August, 1956

Songs 11-15
Art Pepper – alto sax / tenor sax
Red Norvo – vibraharp
Gerald Wiggins – piano
Ben Tucker – bass
Joe Morello – drums

Recorded at Western Recorders in Los Angeles on January 3, 1957

tracklist:
01 – Pepper Returns
02 – Broadway
03 – You Go To My Head
04 – Angel Wings
05 – Funny Blues
06 – Five More
07 – Minority
08 – Patricia
09 – Mambo De La Pinta
10 – Walkin’ Out Blues
11 – Pepper Steak
12 – You’re Driving Me Crazy
13 – Tenor Blooz
14 – Yardbird Suite
15 – Straight Life

EAC log
Exact Audio Copy V1.1 from 23. June 2015

EAC extraction logfile from 31. January 2017, 7:42

Art Pepper / The Return Of Art Pepper – The Complete Art Pepper Aladdin Recordings, Vol. 1

Used drive : TSSTcorpCDDVDW SE-208DB Adapter: 1 ID: 1

Read mode : Secure
Utilize accurate stream : Yes
Defeat audio cache : Yes
Make use of C2 pointers : No

Read offset correction : 6
Overread into Lead-In and Lead-Out : No
Fill up missing offset samples with silence : Yes
Delete leading and trailing silent blocks : No
Null samples used in CRC calculations : Yes
Used interface : Native Win32 interface for Win NT & 2000
Gap handling : Appended to previous track

Used output format : User Defined Encoder
Selected bitrate : 1024 kBit/s
Quality : High
Add ID3 tag : No
Command line compressor : C:Program Files (x86)FLAC Frontendtoolsflac.exe
Additional command line options : -8 -V -T "ARTIST=%artist%" -T "TITLE=%title%" -T "ALBUM=%albumtitle%" -T "DATE=%year%" -T "TRACKNUMBER=%tracknr%" -T "TOTALTRACKS=%numtracks%" -T "GENRE=%genre%" -T "ALBUMARTIST=%albumartist%" -T "ALBUM ARTIST=%albumartist%" -T "COMMENT=EAC Secure Mode, Test & Copy, AccurateRip, FLAC -8" %source%

TOC of the extracted CD

Track | Start | Length | Start sector | End sector
––––––––––––––––––––––––––––-
1 | 0:00.00 | 4:25.70 | 0 | 19944
2 | 4:25.70 | 5:00.05 | 19945 | 42449
3 | 9:26.00 | 4:18.03 | 42450 | 61802
4 | 13:44.03 | 4:43.00 | 61803 | 83027
5 | 18:27.03 | 4:37.67 | 83028 | 103869
6 | 23:04.70 | 4:41.40 | 103870 | 124984
7 | 27:46.35 | 4:18.70 | 124985 | 144404
8 | 32:05.30 | 3:38.00 | 144405 | 160754
9 | 35:43.30 | 4:16.33 | 160755 | 179987
10 | 39:59.63 | 5:56.10 | 179988 | 206697
11 | 45:55.73 | 3:49.65 | 206698 | 223937
12 | 49:45.63 | 5:08.25 | 223938 | 247062
13 | 54:54.13 | 5:01.22 | 247063 | 269659
14 | 59:55.35 | 5:44.28 | 269660 | 295487
15 | 65:39.63 | 3:20.20 | 295488 | 310507

Track 1

Filename D:_EACArt Pepper – The Return Of Art Pepper – The Complete Art Pepper Aladdin Recordings, Vol. 1 (1957) [FLAC]1 – Pepper Returns.wav

Pre-gap length 0:00:02.00

Peak level 100.0 %
Extraction speed 2.5 X
Track quality 99.9 %
Test CRC 4806A485
Copy CRC 4806A485
Track not present in AccurateRip database
Copy OK

Track 2

Filename D:_EACArt Pepper – The Return Of Art Pepper – The Complete Art Pepper Aladdin Recordings, Vol. 1 (1957) [FLAC]2 – Broadway.wav

Peak level 96.9 %
Extraction speed 3.3 X
Track quality 100.0 %
Test CRC 6B12424F
Copy CRC 6B12424F
Track not present in AccurateRip database
Copy OK

Track 3

Filename D:_EACArt Pepper – The Return Of Art Pepper – The Complete Art Pepper Aladdin Recordings, Vol. 1 (1957) [FLAC]3 – You Go To My Head.wav

Pre-gap length 0:00:00.01

Peak level 89.5 %
Extraction speed 3.6 X
Track quality 100.0 %
Test CRC 83F826FF
Copy CRC 83F826FF
Track not present in AccurateRip database
Copy OK

Track 4

Filename D:_EACArt Pepper – The Return Of Art Pepper – The Complete Art Pepper Aladdin Recordings, Vol. 1 (1957) [FLAC]4 – Angel Wings.wav

Peak level 94.6 %
Extraction speed 3.8 X
Track quality 100.0 %
Test CRC 3D1070F3
Copy CRC 3D1070F3
Track not present in AccurateRip database
Copy OK

Track 5

Filename D:_EACArt Pepper – The Return Of Art Pepper – The Complete Art Pepper Aladdin Recordings, Vol. 1 (1957) [FLAC]5 – Funny Blues.wav

Peak level 84.7 %
Extraction speed 3.4 X
Track quality 99.9 %
Test CRC 1A532C48
Copy CRC 1A532C48
Track not present in AccurateRip database
Copy OK

Track 6

Filename D:_EACArt Pepper – The Return Of Art Pepper – The Complete Art Pepper Aladdin Recordings, Vol. 1 (1957) [FLAC]6 – Five More.wav

Peak level 94.6 %
Extraction speed 3.5 X
Track quality 99.9 %
Test CRC 628C2822
Copy CRC 628C2822
Track not present in AccurateRip database
Copy OK

Track 7

Filename D:_EACArt Pepper – The Return Of Art Pepper – The Complete Art Pepper Aladdin Recordings, Vol. 1 (1957) [FLAC]7 – Minority.wav

Peak level 99.6 %
Extraction speed 3.7 X
Track quality 99.9 %
Test CRC 8EB66BC7
Copy CRC 8EB66BC7
Track not present in AccurateRip database
Copy OK

Track 8

Filename D:_EACArt Pepper – The Return Of Art Pepper – The Complete Art Pepper Aladdin Recordings, Vol. 1 (1957) [FLAC]8 – Patricia.wav

Peak level 89.3 %
Extraction speed 4.5 X
Track quality 100.0 %
Test CRC 0480791E
Copy CRC 0480791E
Track not present in AccurateRip database
Copy OK

Track 9

Filename D:_EACArt Pepper – The Return Of Art Pepper – The Complete Art Pepper Aladdin Recordings, Vol. 1 (1957) [FLAC]9 – Mambo De La Pinta.wav

Peak level 99.9 %
Extraction speed 4.8 X
Track quality 100.0 %
Test CRC 5DEF40E2
Copy CRC 5DEF40E2
Track not present in AccurateRip database
Copy OK

Track 10

Filename D:_EACArt Pepper – The Return Of Art Pepper – The Complete Art Pepper Aladdin Recordings, Vol. 1 (1957) [FLAC]10 – Walkin’ Out Blues.wav

Peak level 87.6 %
Extraction speed 5.1 X
Track quality 100.0 %
Test CRC 97E39A0F
Copy CRC 97E39A0F
Track not present in AccurateRip database
Copy OK

Track 11

Filename D:_EACArt Pepper – The Return Of Art Pepper – The Complete Art Pepper Aladdin Recordings, Vol. 1 (1957) [FLAC]11 – Pepper Steak.wav

Peak level 97.9 %
Extraction speed 5.1 X
Track quality 100.0 %
Test CRC 82CEC74D
Copy CRC 82CEC74D
Track not present in AccurateRip database
Copy OK

Track 12

Filename D:_EACArt Pepper – The Return Of Art Pepper – The Complete Art Pepper Aladdin Recordings, Vol. 1 (1957) [FLAC]12 – You’re Driving Me Crazy.wav

Peak level 83.0 %
Extraction speed 5.4 X
Track quality 100.0 %
Test CRC 7484021A
Copy CRC 7484021A
Track not present in AccurateRip database
Copy OK

Track 13

Filename D:_EACArt Pepper – The Return Of Art Pepper – The Complete Art Pepper Aladdin Recordings, Vol. 1 (1957) [FLAC]13 – Tenor Blooz.wav

Peak level 99.8 %
Extraction speed 5.6 X
Track quality 100.0 %
Test CRC 82955BA5
Copy CRC 82955BA5
Track not present in AccurateRip database
Copy OK

Track 14

Filename D:_EACArt Pepper – The Return Of Art Pepper – The Complete Art Pepper Aladdin Recordings, Vol. 1 (1957) [FLAC]14 – Yardbird Suite.wav

Peak level 99.9 %
Extraction speed 5.8 X
Track quality 100.0 %
Test CRC 13735774
Copy CRC 13735774
Track not present in AccurateRip database
Copy OK

Track 15

Filename D:_EACArt Pepper – The Return Of Art Pepper – The Complete Art Pepper Aladdin Recordings, Vol. 1 (1957) [FLAC]15 – Straight Life.wav

Peak level 97.3 %
Extraction speed 5.5 X
Track quality 100.0 %
Test CRC AEC9EFFE
Copy CRC AEC9EFFE
Track not present in AccurateRip database
Copy OK

None of the tracks are present in the AccurateRip database

No errors occurred

End of status report

==== Log checksum 4BF80C2144051764962A7166A7A14475D0A82A9B97D4226C45B609A7680E460E ====

Art Pepper - The Return Of Art Pepper - The Complete Art Pepper Aladdin Recordings, Vol. 1 (1957) {Blue Note 46863 rel 1988}

Art Pepper - The Return Of Art Pepper - The Complete Art Pepper Aladdin Recordings, Vol. 1 (1957) {Blue Note 46863 rel 1988}

the artwork -> thanks to Mal…

NEXT -> Art Pepper – Modern Art – The Complete Art Pepper Aladdin Recordings, Vol. 2 (1957)

===

Art Pepper – The Return Of Art Pepper – The Complete Art Pepper Aladdin Recordings, Vol. 1 (1957) {Blue Note 46863 rel 1988} Download, Warez, DDL, Free, Full Album, Torrent, Legal.

Tags:

  • the Complete Art Pepper Aladdin Recording flac lossless
Download