Art Farmer and Fritz Pauer – Azure (1987) {Soul Note SN 1126 CD}

Download
Art Farmer and Fritz Pauer - Azure (1987) {Soul Note SN 1126 CD}

Art Farmer and Fritz Pauer – Azure (1987) {Soul Note SN 1126 CD}
EAC rip (secure mode) | FLAC (tracks)+CUE+LOG -> 157 Mb | MP3 @320 -> 95 Mb
Full Artwork @ 300 dpi (jpg) -> 23 Mb | 5% repair rar
© 1987 Soul Note | SN 1126 CD
Jazz / Bop / Cool / Hard Bop / Piano / Flugelhorn

Although the personnel listing mistakenly lists pianist Fritz Pauer as playing bass, this mellow release features his duets with flugelhornist Art Farmer. Pauer has been Farmer’s regular pianist overseas since the flugelhornist moved to Europe in 1968. Together they perform three of Pauer’s moody originals, an Austrian folk song and tunes by Al Cohn, Mal Waldron ("Soul Eyes"), Duke Ellington, Benny Golson and Tadd Dameron ("If You Could See Me Now") with the emphasis on ballads. A peaceful and mostly introspective release.

Personnel:
Art Farmer – flugelhorn
Fritz Pauer – piano

tracklist:
01 – If You Could See Me Now
02 – Nighttime
03 – Yesterday’s Thoughts
04 – Blue Windows
05 – Azure
06 – Sound Within an Empty Room
07 – Soul Eyes
08 – Danielle
09 – Song of Praise

EAC log
EAC extraction logfile from 17. July 2009, 21:04 for CD
Art Farmer / Azure

Used drive : HP DVD Writer 1170d Adapter: 2 ID: 0
Read mode : Secure with NO C2, accurate stream, disable cache
Read offset correction : 6
Overread into Lead-In and Lead-Out : No

Used output format : C:EacCodecsflac.exe (User Defined Encoder)
320 kBit/s
Additional command line options : -8 -V -T "artist=%a" -T "title=%t" -T "album=%g" -T "date=%y" -T "tracknumber=%n" -T "genre=%m" -T "comment=EAC Flac 1.1.2 -8" %s

Other options :
Fill up missing offset samples with silence : Yes
Delete leading and trailing silent blocks : No
Installed external ASPI interface

Track 1
Filename C:Documents and Settingsaf1 – If You Could See Me Now.wav

Pre-gap length 0:00:02.44

Peak level 77.1 %
Track quality 100.0 %
Test CRC D9BF5804
Copy CRC D9BF5804
Copy OK

Track 2
Filename C:Documents and Settingsaf2 – Nighttime.wav

Pre-gap length 0:00:09.24

Peak level 100.0 %
Track quality 100.0 %
Test CRC FF937ACB
Copy CRC FF937ACB
Copy OK

Track 3
Filename C:Documents and Settingsaf3 – Yesterday’s Thoughts.wav

Pre-gap length 0:00:04.30

Peak level 84.1 %
Track quality 99.9 %
Test CRC C139F9B0
Copy CRC C139F9B0
Copy OK

Track 4
Filename C:Documents and Settingsaf4 – Blue Windows.wav

Pre-gap length 0:00:02.60

Peak level 64.4 %
Track quality 99.9 %
Test CRC AAF642EC
Copy CRC AAF642EC
Copy OK

Track 5
Filename C:Documents and Settingsaf5 – Azure.wav

Pre-gap length 0:00:03.69

Peak level 99.8 %
Track quality 100.0 %
Test CRC 33AA8974
Copy CRC 33AA8974
Copy OK

Track 6
Filename C:Documents and Settingsaf6 – Sound Within an Empty Room.wav

Pre-gap length 0:00:04.24

Peak level 86.2 %
Track quality 100.0 %
Test CRC BF4C3D77
Copy CRC BF4C3D77
Copy OK

Track 7
Filename C:Documents and Settingsaf7 – Soul Eyes.wav

Pre-gap length 0:00:03.56

Peak level 76.5 %
Track quality 100.0 %
Test CRC 2D23C0D8
Copy CRC 2D23C0D8
Copy OK

Track 8
Filename C:Documents and Settingsaf8 – Danielle.wav

Pre-gap length 0:00:02.30

Peak level 73.1 %
Track quality 100.0 %
Test CRC 2CF85A3C
Copy CRC 2CF85A3C
Copy OK

Track 9
Filename C:Documents and Settingsaf9 – Song of Praise.wav

Pre-gap length 0:00:03.60

Peak level 63.4 %
Track quality 99.9 %
Test CRC CE6C146E
Copy CRC CE6C146E
Copy OK

No errors occured

End of status report

Art Farmer and Fritz Pauer - Azure (1987) {Soul Note SN 1126 CD}

Art Farmer and Fritz Pauer - Azure (1987) {Soul Note SN 1126 CD}
===

Art Farmer and Fritz Pauer – Azure (1987) {Soul Note SN 1126 CD} Download, Warez, DDL, Free, Full Album, Torrent, Legal.

Download