Aron Ottignon – Team Aquatic (2017)

Download
Aron Ottignon - Team Aquatic (2017)

Aron Ottignon – Team Aquatic
Jazz | WEB FLAC (tracks) & d. booklet – 267 MB | MP3 CBR 320 kbps – 111 MB | 46:26 min
Label: Blue Note | Tracks: 11 | Rls.date: 2017

“Big gestures, fat sounds and monster grooves, with a youthful energy that’s yoked to genuine musical ability” (The Guardian)

Following a string of acclaimed EPs, virtuoso experimental jazz pianist Aron Ottingnon is set to release his debut full length album. ‘Team Aquatic’ will be released via Blue Note.

Dividing his time from now on between Paris and Berlin, Aron Ottignon has been recording Team Aquatic these past two years in the company of producers Paul “Seiji” Dolby and Rodi Kirk.

As his first album under his own name, ‘Team Aquatic’ takes up the tale exactly where Aron has left it, even to the point of having its eponymous title-track dedicated to the good times enjoyed by the group during its London years. Starfish, by the way, was composed during that period, with its 6/4 rhythms enacted on wooden drums from the South Pacific.

So this musician’s credo is marked by absolute cohesion, but also by the spirit of adventure: Rivers is nourished by Peruvian traditional music, while Waves and Ocean draw inspiration from a voyage to Reunion Island accompanied by kayamba rhythms. Sustained by heavy electronic claps, The Jungle was born the day before Aron went to Calais: at Christmas 2015 he arrived at the camp to assist refugees for a week.

The eleven-title album – and three bonus tracks – fades to a close with the sublime ballad Rothesay Bay, named after the beach where his grandparents have always lived. He was born there, another circle complete.

TRACKLIST
01. Starfish
02. Waterfalls
03. Waves
04. The Jungle
05. Ocean
06. Team Aquatic
07. Hot Tub
08. Rivers
09. Stonefish
10. The Nile
11. Rothesay Bay

PERSONNEL
Aron Ottignon, piano
Samuel Dubois, steel pan, percussion
Jose Joyette, drums, bass

auCDtect
PERFORMER: auCDtect Task Manager, ver. 1.6.0 RC1 build 1.6.0.1
Copyright © 2008-2010 y-soft. All rights reserved

ANALYZER: auCDtect: CD records authenticity detector, version 0.8.2
Copyright © 2004 Oleg Berngardt. All rights reserved.
Copyright © 2004 Alexander Djourik. All rights reserved.

FILE: 11. Rothesay Bay.flac
Size: 13823511 Hash: 6FB14FF28E222CD6DA562B500306F6BB Accuracy: -m0
Conclusion: CDDA 100%
Signature: AF5159FF85C28F07AE0A558BBC62419778464C64
FILE: 10. The Nile.flac
Size: 21222438 Hash: 11CCDE7FF46413A2923915BE562FDAE5 Accuracy: -m0
Conclusion: CDDA 100%
Signature: 39F0A93B68C747DB7D735A111ACFC6BBDAE299D3
FILE: 09. Stonefish.flac
Size: 31262252 Hash: DBA5C37A92E58B050983D0326C68FB74 Accuracy: -m0
Conclusion: CDDA 100%
Signature: DADABBE9C75A5BC6E8C1CF44B4B50494D88B7331
FILE: 08. Rivers.flac
Size: 24507437 Hash: FCD7BE1EADFA4B084F10B44438771D23 Accuracy: -m0
Conclusion: CDDA 100%
Signature: BDA1B073DC6E73D97A45BE1E3DC2EF099E0B6858
FILE: 07. Hot Tub.flac
Size: 28021090 Hash: DDAF6F968C6C62578BDE7277C9231B41 Accuracy: -m0
Conclusion: CDDA 100%
Signature: CB620E5C0EEE9A525A235EE308B8FE1F088D3A55
FILE: 06. Team Aquatic.flac
Size: 21406016 Hash: BE67ED25ADBCDBB4A1983A8D613F3151 Accuracy: -m0
Conclusion: CDDA 100%
Signature: 61249D2CFC6CCB9A8E41C517B3B81A43C43FED13
FILE: 05. Ocean.flac
Size: 27768137 Hash: 3D97F4C82E4AF406AEE30A96AFB64ECF Accuracy: -m0
Conclusion: CDDA 100%
Signature: 9B2CC6723D6A0794CA9B366A5D18320B6331C27C
FILE: 04. The Jungle.flac
Size: 42982396 Hash: 2787B89FD3BFF272D8F4E2252F5F5A2E Accuracy: -m0
Conclusion: CDDA 100%
Signature: C5FDDE9D651860A8381DE3AF4C18B7B3FC17EB30
FILE: 03. Waves.flac
Size: 23308818 Hash: F29B347C7B018E1B819ED4B4CD85D54B Accuracy: -m0
Conclusion: CDDA 100%
Signature: 0FBB4657266A2CC4F7A8274C220BD62F6175DF7F
FILE: 02. Waterfalls.flac
Size: 18138482 Hash: 1656BF4F8029AF4E3D53698016C7A028 Accuracy: -m0
Conclusion: CDDA 100%
Signature: 3FCBA9B119EBB90E04CA50F0F0FF0E637CEFFCCE
FILE: 01. Starfish.flac
Size: 25558036 Hash: E7271BC0C0D5D840CDE52BF8BA990EC3 Accuracy: -m0
Conclusion: CDDA 100%
Signature: FB0BC4C3DD003FB91DE1472791CD480183CCD751

DR
foobar2000 1.3.7 / Dynamic Range Meter 1.1.1
log date: 2017-10-13 11:50:56

––––––––––––––––––––––––––––––––––––––––
Analyzed: Aron Ottignon / Team Aquatic
––––––––––––––––––––––––––––––––––––––––

DR Peak RMS Duration Track
––––––––––––––––––––––––––––––––––––––––
DR7 -0.01 dB -8.59 dB 4:08 01-Starfish
DR7 -0.01 dB -9.24 dB 3:14 02-Waterfalls
DR6 -0.01 dB -7.79 dB 3:29 03-Waves
DR8 -0.01 dB -11.43 dB 7:17 04-The Jungle
DR7 -0.01 dB -9.65 dB 4:55 05-Ocean
DR7 -0.01 dB -9.37 dB 3:48 06-Team Aquatic
DR7 -0.01 dB -11.28 dB 4:43 07-Hot Tub
DR7 -0.01 dB -9.42 dB 3:47 08-Rivers
DR7 -0.01 dB -9.18 dB 4:47 09-Stonefish
DR7 -0.01 dB -8.55 dB 3:41 10-The Nile
DR9 -0.01 dB -12.98 dB 2:39 11-Rothesay Bay
––––––––––––––––––––––––––––––––––––––––

Number of tracks: 11
Official DR value: DR7

Samplerate: 44100 Hz
Channels: 2
Bits per sample: 16
Bitrate: 682 kbps
Codec: FLAC
================================================================================

Thanks to the Original customer.

Aron Ottignon – Team Aquatic (2017) Download, Warez, DDL, Free, Full Album, Torrent, Legal.

Download