Arno Babadjanian – Complete Original Works for Piano Solo (Hayk Melikyan) [2014]

Download
Arno Babadjanian - Complete Original Works for Piano Solo (Hayk Melikyan) [2014]

Arno Babadjanian – Complete Original Works for Piano Solo (Hayk Melikyan) [2014]
EAC Rip | FLAC, TRACKs+CUE, LOG | Covers | 1cd, 210.37 MB
Classical | Label: Grand Piano | Catalog Number: GP674

One of the former Soviet Union’s leading composers and a member of the so-called Armenian ‘Mighty Handful’, Arno Babadjanian was admired by musicians of the stature of Shostakovich, Khachaturian, Rostropovich and David Oistrakh. He was also an outstanding pianist and a very considerable virtuoso. Babadjanian’s music explores his native Armenian folk tradition as well as elements of jazz and twelve-tone techniques…

Performer:
Hayk Melikyan – Piano

Tracklisting:
Polyphonic Sonata
01. I. Prelude (01:08)
02. II. Fugue (07:16)
03. III. Toccata (04:30)
6 Kartin (6 Pictures)
04. No. 1. Improvisation (02:14)
05. No. 2. Folk Song (01:32)
06. No. 3. Toccatina (01:54)
07. No. 4. Intermezzo (01:37)
08. No. 5. Chorale (03:59)
09. No. 6. Sassoun Dance (02:45)
Melody and Humoresque
10. I. Melody (02:33)
11. II. Humoresque (01:51)
12. Elegy (03:47)
13. Reflection (02:24)
14. Prelude (01:41)
15. Vagharshapat Dance (01:48)
16. Impromptu, ‘Exprompt’ (02:49)
17. Capriccio (04:52)
18. Poem (06:35)

LOG
Exact Audio Copy V1.0 beta 3 from 29. August 2011

EAC extraction logfile from 23. November 2014, 23:28

Arno Harutyuni Babadjanian / Piano Solo Works (Complete) (Melikyan)

Used drive : TSSTcorpCDDVDW SH-S223C Adapter: 2 ID: 1

Read mode : Secure
Utilize accurate stream : Yes
Defeat audio cache : Yes
Make use of C2 pointers : No

Read offset correction : 697
Overread into Lead-In and Lead-Out : No
Fill up missing offset samples with silence : Yes
Delete leading and trailing silent blocks : No
Null samples used in CRC calculations : Yes
Used interface : Native Win32 interface for Win NT & 2000
Gap handling : Appended to previous track

Used output format : User Defined Encoder
Selected bitrate : 1024 kBit/s
Quality : High
Add ID3 tag : No
Command line compressor : C:Program Files (x86)Exact Audio CopyFLACFLAC.EXE
Additional command line options : -V -0 -T "COMMENT=Ripped by Tapaz9/Johnston" -T "artist=%artist%" -T "title=%title%" -T "album=%albumtitle%" -T "date=%year%" -T "tracknumber=%tracknr%" -T "genre=%genre%" %source%

TOC of the extracted CD

Track | Start | Length | Start sector | End sector
––––––––––––––––––––––––––––-
1 | 0:00.00 | 1:07.52 | 0 | 5076
2 | 1:07.52 | 7:15.21 | 5077 | 37722
3 | 8:22.73 | 4:29.64 | 37723 | 57961
4 | 12:52.62 | 2:13.72 | 57962 | 68008
5 | 15:06.59 | 1:31.56 | 68009 | 74889
6 | 16:38.40 | 1:53.53 | 74890 | 83417
7 | 18:32.18 | 1:37.04 | 83418 | 90696
8 | 20:09.22 | 3:58.57 | 90697 | 108603
9 | 24:08.04 | 2:44.74 | 108604 | 120977
10 | 26:53.03 | 2:33.04 | 120978 | 132456
11 | 29:26.07 | 1:50.74 | 132457 | 140780
12 | 31:17.06 | 3:47.05 | 140781 | 157810
13 | 35:04.11 | 2:23.65 | 157811 | 168600
14 | 37:28.01 | 1:40.32 | 168601 | 176132
15 | 39:08.33 | 1:47.72 | 176133 | 184229
16 | 40:56.30 | 2:48.35 | 184230 | 196864
17 | 43:44.65 | 4:51.67 | 196865 | 218756
18 | 48:36.57 | 6:34.11 | 218757 | 248317

Track 1

Filename F:MusiqueGrandPianoBabadjanian, Arno Harutyuni1 – Polyphonic Sonata – I. Prelude.wav

Pre-gap length 0:00:02.00

Peak level 90.1 %
Extraction speed 5.9 X
Track quality 99.8 %
Test CRC 02ED78AE
Copy CRC 02ED78AE
Track not present in AccurateRip database
Copy OK

Track 2

Filename F:MusiqueGrandPianoBabadjanian, Arno Harutyuni2 – II. Fugue.wav

Peak level 98.0 %
Extraction speed 9.1 X
Track quality 100.0 %
Test CRC D3B223E1
Copy CRC D3B223E1
Track not present in AccurateRip database
Copy OK

Track 3

Filename F:MusiqueGrandPianoBabadjanian, Arno Harutyuni3 – III. Toccata.wav

Peak level 98.0 %
Extraction speed 12.7 X
Track quality 100.0 %
Test CRC 0CFE7CFD
Copy CRC 0CFE7CFD
Track not present in AccurateRip database
Copy OK

Track 4

Filename F:MusiqueGrandPianoBabadjanian, Arno Harutyuni4 – 6 Kartin (6 Pictures) – No. 1. Improvisation.wav

Peak level 98.6 %
Extraction speed 11.5 X
Track quality 100.0 %
Test CRC 194924FB
Copy CRC 194924FB
Track not present in AccurateRip database
Copy OK

Track 5

Filename F:MusiqueGrandPianoBabadjanian, Arno Harutyuni5 – No. 2. Folk Song.wav

Peak level 98.0 %
Extraction speed 10.9 X
Track quality 100.0 %
Test CRC A0FC3FEC
Copy CRC A0FC3FEC
Track not present in AccurateRip database
Copy OK

Track 6

Filename F:MusiqueGrandPianoBabadjanian, Arno Harutyuni6 – No. 3. Toccatina.wav

Peak level 96.0 %
Extraction speed 11.1 X
Track quality 100.0 %
Test CRC 7DD45583
Copy CRC 7DD45583
Track not present in AccurateRip database
Copy OK

Track 7

Filename F:MusiqueGrandPianoBabadjanian, Arno Harutyuni7 – No. 4. Intermezzo.wav

Peak level 72.8 %
Extraction speed 10.5 X
Track quality 100.0 %
Test CRC 2C5A4292
Copy CRC 2C5A4292
Track not present in AccurateRip database
Copy OK

Track 8

Filename F:MusiqueGrandPianoBabadjanian, Arno Harutyuni8 – No. 5. Chorale.wav

Peak level 56.8 %
Extraction speed 12.4 X
Track quality 100.0 %
Test CRC F2789D3E
Copy CRC F2789D3E
Track not present in AccurateRip database
Copy OK

Track 9

Filename F:MusiqueGrandPianoBabadjanian, Arno Harutyuni9 – No. 6. Sassoun Dance.wav

Peak level 98.7 %
Extraction speed 10.2 X
Track quality 99.9 %
Test CRC 72D5DB46
Copy CRC 72D5DB46
Track not present in AccurateRip database
Copy OK

Track 10

Filename F:MusiqueGrandPianoBabadjanian, Arno Harutyuni10 – Melody and Humoresque – I. Melody.wav

Peak level 99.1 %
Extraction speed 10.6 X
Track quality 99.9 %
Test CRC F3F3F141
Copy CRC F3F3F141
Track not present in AccurateRip database
Copy OK

Track 11

Filename F:MusiqueGrandPianoBabadjanian, Arno Harutyuni11 – II. Humoresque.wav

Peak level 99.4 %
Extraction speed 11.2 X
Track quality 100.0 %
Test CRC D0114E72
Copy CRC D0114E72
Track not present in AccurateRip database
Copy OK

Track 12

Filename F:MusiqueGrandPianoBabadjanian, Arno Harutyuni12 – Elegy.wav

Peak level 100.0 %
Extraction speed 11.5 X
Track quality 99.9 %
Test CRC D8D27BA4
Copy CRC D8D27BA4
Track not present in AccurateRip database
Copy OK

Track 13

Filename F:MusiqueGrandPianoBabadjanian, Arno Harutyuni13 – Reflection.wav

Peak level 95.9 %
Extraction speed 12.0 X
Track quality 100.0 %
Test CRC B8F766F9
Copy CRC B8F766F9
Track not present in AccurateRip database
Copy OK

Track 14

Filename F:MusiqueGrandPianoBabadjanian, Arno Harutyuni14 – Prelude.wav

Peak level 50.5 %
Extraction speed 10.7 X
Track quality 100.0 %
Test CRC C3120F0F
Copy CRC C3120F0F
Track not present in AccurateRip database
Copy OK

Track 15

Filename F:MusiqueGrandPianoBabadjanian, Arno Harutyuni15 – Vagharshapat Dance.wav

Peak level 93.6 %
Extraction speed 11.3 X
Track quality 100.0 %
Test CRC E8D89B41
Copy CRC E8D89B41
Track not present in AccurateRip database
Copy OK

Track 16

Filename F:MusiqueGrandPianoBabadjanian, Arno Harutyuni16 – Impromptu, ”Exprompt”.wav

Peak level 75.5 %
Extraction speed 12.5 X
Track quality 100.0 %
Test CRC 96B5D48B
Copy CRC 96B5D48B
Track not present in AccurateRip database
Copy OK

Track 17

Filename F:MusiqueGrandPianoBabadjanian, Arno Harutyuni17 – Capriccio.wav

Peak level 94.6 %
Extraction speed 13.6 X
Track quality 100.0 %
Test CRC 43094C53
Copy CRC 43094C53
Track not present in AccurateRip database
Copy OK

Track 18

Filename F:MusiqueGrandPianoBabadjanian, Arno Harutyuni18 – Poem.wav

Peak level 92.1 %
Extraction speed 13.6 X
Track quality 100.0 %
Test CRC 0D3767D0
Copy CRC 0D3767D0
Track not present in AccurateRip database
Copy OK

None of the tracks are present in the AccurateRip database

No errors occurred

End of status report

==== Log checksum 7B63500D1707FC5CA3E2A818049F49BCFD842AF28186B0368B82A90434E9D528 ====

Arno Babadjanian – Complete Original Works for Piano Solo (Hayk Melikyan) [2014] Download, Warez, DDL, Free, Full Album, Torrent, Legal.

Download