Ariadne Daskalakis, Ensemble Vintage Köln – Biber – The Rosary Sonatas (2015)

Download
Ariadne Daskalakis, Ensemble Vintage Köln - Biber - The Rosary Sonatas (2015)

Ariadne Daskalakis, Ensemble Vintage Köln – Biber – The Rosary Sonatas (2015)
EAC | FLAC (image+.cue, log) | Covers + Digital Booklet | 02:12:30 | 768 MB
Genre: Classical | Label: BIS | Catalog: BIS-SACD-2096

Biber’s ‘Rosary Sonatas’ for violin and basso continuo stand alone in the violin literature and in music history, offering a unique combination of programmatic material and the use of scordatura. The cycle consists of fifteen sonatas for violin and basso continuo, and a closing Passacaglia for solo violin, composed c.1687. Through the copper engravings inserted at the head of each sonata in the manuscript depicting key moments in the lives of Christ and the Virgin Mary, the music has become associated with the Catholic Mysteries of the Rosary. Through the use of fifteen different tunings of the violin one for each of the fifteen sonatas before the return to standard tuning in the closing Passacaglia Biber achieves a variety of timbres that, when combined with his highly imaginative treatment of the violin, makes for absorbing listening. Appearing for the first time on BIS, the Greek-American violinist Ariadne Daskalakis has made a number of previous recordings, on baroque as well as modern violin. She is here supported by her fellow members in Ensemble Vintage Köln, a Cologne-based group of musicians specialized in baroque music. As a coupling to Biber’s Rosary Sonatas with a duration of almost 120 minutes the ensemble has chosen to include the only extant violin sonata by George Muffat, Biber’s colleague in the service of the Prince-Archbishop of Salzburg.

AllMusic

Ariadne Daskalakis, Ensemble Vintage Köln - Biber - The Rosary Sonatas (2015)

Track List:

Heinrich Ignaz Franz von Biber (1644–1704)

CD 1:
The Five Joyful Mysteries
[1]-[3] Sonata 1. The Annunciation
[4]-[6] Sonata 2. The Visitation
[7]-[9] Sonata 3. The Nativity
[10] Sonata 4. The Presentation of Jesus in the Temple
[11]-[14] Sonata 5. The Finding of Jesus in the Temple
The Five Sorrowful Mysteries
[15] Sonata 6. The Agony in the Garden
[16]-[17] Sonata 7. The Scourging at the Pillar
[18]-[19] Sonata 8. The Crowning with Thorns
[20]-[22] Sonata 9. The Carrying of the Cross
[23]-[24] Sonata 10. The Crucifixion

EAC Log
Exact Audio Copy V1.1 from 23. June 2015

EAC extraction logfile from 10. January 2016, 1:10

Ariadne Daskalakis, Ensemble Vintage Köln / Biber – The Rosary Sonatas – CD1

Used drive : HL-DT-STDVDRAM GU70N Adapter: 1 ID: 0

Read mode : Secure
Utilize accurate stream : Yes
Defeat audio cache : Yes
Make use of C2 pointers : No

Read offset correction : 48
Overread into Lead-In and Lead-Out : No
Fill up missing offset samples with silence : Yes
Delete leading and trailing silent blocks : No
Null samples used in CRC calculations : Yes
Used interface : Native Win32 interface for Win NT & 2000

Used output format : User Defined Encoder
Selected bitrate : 128 kBit/s
Quality : High
Add ID3 tag : No
Command line compressor : C:Program Files (x86)Exact Audio CopyFlacflac.exe
Additional command line options : -V -8 -T "Date=%year%" -T "Genre=%genre%" %source%

TOC of the extracted CD

Track | Start | Length | Start sector | End sector
––––––––––––––––––––––––––––-
1 | 0:00.00 | 2:12.08 | 0 | 9907
2 | 2:12.08 | 2:37.30 | 9908 | 21712
3 | 4:49.38 | 0:59.41 | 21713 | 26178
4 | 5:49.04 | 1:37.54 | 26179 | 33507
5 | 7:26.58 | 2:26.69 | 33508 | 44526
6 | 9:53.52 | 0:52.38 | 44527 | 48464
7 | 10:46.15 | 1:27.12 | 48465 | 55001
8 | 12:13.27 | 2:36.66 | 55002 | 66767
9 | 14:50.18 | 2:11.13 | 66768 | 76605
10 | 17:01.31 | 7:08.39 | 76606 | 108744
11 | 24:09.70 | 0:58.45 | 108745 | 113139
12 | 25:08.40 | 1:31.56 | 113140 | 120020
13 | 26:40.21 | 1:18.14 | 120021 | 125884
14 | 27:58.35 | 3:34.07 | 125885 | 141941
15 | 31:32.42 | 8:39.51 | 141942 | 180917
16 | 40:12.18 | 3:33.60 | 180918 | 196952
17 | 43:46.03 | 4:59.61 | 196953 | 219438
18 | 48:45.64 | 2:17.22 | 219439 | 229735
19 | 51:03.11 | 3:46.74 | 229736 | 246759
20 | 54:50.10 | 2:13.70 | 246760 | 256804
21 | 57:04.05 | 3:18.21 | 256805 | 271675
22 | 60:22.26 | 1:29.56 | 271676 | 278406
23 | 61:52.07 | 1:12.00 | 278407 | 283806
24 | 63:04.07 | 7:33.52 | 283807 | 317833

Range status and errors

Selected range

Filename C:tempBIS-SACD-2096 – Biber – The Rosary SonatasCD1Biber – The Rosary Sonatas – CD1.wav

Peak level 92.8 %
Extraction speed 2.3 X
Range quality 100.0 %
Test CRC 60A93880
Copy CRC 60A93880
Copy OK

No errors occurred

AccurateRip summary

Track 1 not present in database
Track 2 not present in database
Track 3 not present in database
Track 4 not present in database
Track 5 not present in database
Track 6 not present in database
Track 7 not present in database
Track 8 not present in database
Track 9 not present in database
Track 10 not present in database
Track 11 not present in database
Track 12 not present in database
Track 13 not present in database
Track 14 not present in database
Track 15 not present in database
Track 16 not present in database
Track 17 not present in database
Track 18 not present in database
Track 19 not present in database
Track 20 not present in database
Track 21 not present in database
Track 22 not present in database
Track 23 not present in database
Track 24 not present in database

None of the tracks are present in the AccurateRip database

End of status report

==== Log checksum A3FA4FD74C61680ED7B151E1C98053864A8A6DDC0CE2652FED8A8BB0AC654F87 ====

CUETools Log
[CUETools log; Date: 09.01.2017 21:58:30; Version: 2.1.5]
[CTDB TOCID: HLEayFZ0QHGqZxppiLI1u1M90TE-] found.
Track | CTDB Status
1 | (1/1) Accurately ripped
2 | (1/1) Accurately ripped
3 | (1/1) Accurately ripped
4 | (1/1) Accurately ripped
5 | (1/1) Accurately ripped
6 | (1/1) Accurately ripped
7 | (1/1) Accurately ripped
8 | (1/1) Accurately ripped
9 | (1/1) Accurately ripped
10 | (1/1) Accurately ripped
11 | (1/1) Accurately ripped
12 | (1/1) Accurately ripped
13 | (1/1) Accurately ripped
14 | (1/1) Accurately ripped
15 | (1/1) Accurately ripped
16 | (1/1) Accurately ripped
17 | (1/1) Accurately ripped
18 | (1/1) Accurately ripped
19 | (1/1) Accurately ripped
20 | (1/1) Accurately ripped
21 | (1/1) Accurately ripped
22 | (1/1) Accurately ripped
23 | (1/1) Accurately ripped
24 | (1/1) Accurately ripped
[AccurateRip ID: 00350538-03be3f00-51108d18] found.
Track [ CRC | V2 ] Status
01 [55f7196d|1d6ec661] (0+1/1) Accurately ripped
02 [73619d81|b7b3149b] (0+1/1) Accurately ripped
03 [e31fcfb3|038d1b5e] (0+1/1) Accurately ripped
04 [befd96f8|4d63919e] (0+1/1) Accurately ripped
05 [b31d0947|61483f13] (0+1/1) Accurately ripped
06 [b80be800|07d9dccf] (0+1/1) Accurately ripped
07 [356af51a|867040c4] (0+1/1) Accurately ripped
08 [a5ebc20a|117e9c64] (0+1/1) Accurately ripped
09 [07c81f29|182a26dc] (0+1/1) Accurately ripped
10 [38f2ae92|e90ec43e] (0+1/1) Accurately ripped
11 [6ffb6932|bc58027e] (0+1/1) Accurately ripped
12 [854ebf38|90618443] (0+1/1) Accurately ripped
13 [b9295ae2|1a5b071a] (0+1/1) Accurately ripped
14 [23264ea6|f6192374] (0+1/1) Accurately ripped
15 [ae135ab7|222460a1] (0+1/1) Accurately ripped
16 [d6b5e069|257ad3be] (0+1/1) Accurately ripped
17 [44aed2d8|08a947ce] (0+1/1) Accurately ripped
18 [e26d4d08|459c49b4] (0+1/1) Accurately ripped
19 [71ea9c3e|c2601342] (0+1/1) Accurately ripped
20 [e0b95123|19b1b90e] (0+1/1) Accurately ripped
21 [1f1c8231|956b3b8c] (0+1/1) Accurately ripped
22 [059f258d|48792f0a] (0+1/1) Accurately ripped
23 [e82ca63a|5481bd67] (0+1/1) Accurately ripped
24 [693f27b6|8ef69615] (0+1/1) Accurately ripped

Track Peak [ CRC32 ] [W/O NULL] [ LOG ]
– 92,8 [60A93880] [A8D0509A] CRC32
01 68,2 [63A9FDA1] [B7E4E7CA]
02 52,8 [265EC373] [C1794331]
03 83,5 [3EB2E7A6] [063D714F]
04 71,5 [BED17EE6] [DE8D9450]
05 60,4 [92AA0FAC] [0C900BC8]
06 92,8 [3A72F799] [99181E50]
07 52,4 [2662BD86] [422E52D9]
08 69,0 [817D5552] [07678137]
09 57,8 [BCA3975B] [E95A8CC8]
10 87,3 [B890743F] [5FC7C2A9]
11 61,2 [6550C273] [5CB768ED]
12 46,0 [710A7E9A] [572C1724]
13 55,0 [86C7AA4C] [388EC574]
14 42,0 [BC053167] [A4C96B0C]
15 66,0 [C50B03AE] [A44AAC58]
16 48,2 [43D20454] [F8E7CD9E]
17 84,8 [C2BC7E9E] [60EC3D9C]
18 60,5 [01720F26] [F5090C8E]
19 48,2 [B72FCF3F] [D6E7CE42]
20 47,5 [651E6946] [EDA3FA61]
21 60,9 [378905C2] [A71EDFCF]
22 65,3 [5A91076D] [ACAB0CBE]
23 74,7 [DA349323] [120EADA5]
24 73,9 [6BBE32DF] [755AF070]

CD 2:
The Five Glorious Mysteries
[1]-[3] Sonata 11. The Resurrection
[4]-[7] Sonata 12. The Ascension
[8]-[11] Sonata 13. The Descent of the Holy Spirit
[12]-[13] Sonata 14. The Assumption of the Virgin
[14]-[17] Sonata 15. The Coronation of the Virgin
The Guardian Angel
[18] Passagalia [Sonata 16] for solo violin
Georg Muffat (1653–1704)
[19] Sonata in D major for violin and basso continuo

EAC Log
Exact Audio Copy V1.1 from 23. June 2015

EAC extraction logfile from 10. January 2016, 11:46

Ariadne Daskalakis, Ensemble Vintage Köln / Biber – The Rosary Sonatas – CD2

Used drive : HL-DT-STDVDRAM GU70N Adapter: 1 ID: 0

Read mode : Secure
Utilize accurate stream : Yes
Defeat audio cache : Yes
Make use of C2 pointers : No

Read offset correction : 48
Overread into Lead-In and Lead-Out : No
Fill up missing offset samples with silence : Yes
Delete leading and trailing silent blocks : No
Null samples used in CRC calculations : Yes
Used interface : Native Win32 interface for Win NT & 2000

Used output format : User Defined Encoder
Selected bitrate : 128 kBit/s
Quality : High
Add ID3 tag : No
Command line compressor : C:Program Files (x86)Exact Audio CopyFlacflac.exe
Additional command line options : -V -8 -T "Date=%year%" -T "Genre=%genre%" %source%

TOC of the extracted CD

Track | Start | Length | Start sector | End sector
––––––––––––––––––––––––––––-
1 | 0:00.00 | 2:33.35 | 0 | 11509
2 | 2:33.35 | 3:42.11 | 11510 | 28170
3 | 6:15.46 | 1:24.59 | 28171 | 34529
4 | 7:40.30 | 0:31.47 | 34530 | 36901
5 | 8:12.02 | 1:10.64 | 36902 | 42215
6 | 9:22.66 | 2:33.52 | 42216 | 53742
7 | 11:56.43 | 2:44.41 | 53743 | 66083
8 | 14:41.09 | 3:03.46 | 66084 | 79854
9 | 17:44.55 | 1:09.50 | 79855 | 85079
10 | 18:54.30 | 1:38.54 | 85080 | 92483
11 | 20:33.09 | 1:40.66 | 92484 | 100049
12 | 22:14.00 | 2:20.02 | 100050 | 110551
13 | 24:34.02 | 5:40.19 | 110552 | 136070
14 | 30:14.21 | 1:26.00 | 136071 | 142520
15 | 31:40.21 | 4:40.15 | 142521 | 163535
16 | 36:20.36 | 1:41.08 | 163536 | 171118
17 | 38:01.44 | 2:38.30 | 171119 | 182998
18 | 40:39.74 | 8:10.38 | 182999 | 219786
19 | 48:50.37 | 13:03.34 | 219787 | 278545

Range status and errors

Selected range

Filename C:tempBIS-SACD-2096 – Biber – The Rosary SonatasCD2Biber – The Rosary Sonatas – CD2.wav

Peak level 91.6 %
Extraction speed 2.2 X
Range quality 100.0 %
Test CRC CA4D5D70
Copy CRC CA4D5D70
Copy OK

No errors occurred

AccurateRip summary

Track 1 not present in database
Track 2 not present in database
Track 3 not present in database
Track 4 not present in database
Track 5 not present in database
Track 6 not present in database
Track 7 not present in database
Track 8 not present in database
Track 9 not present in database
Track 10 not present in database
Track 11 not present in database
Track 12 not present in database
Track 13 not present in database
Track 14 not present in database
Track 15 not present in database
Track 16 not present in database
Track 17 not present in database
Track 18 not present in database
Track 19 not present in database

None of the tracks are present in the AccurateRip database

End of status report

==== Log checksum 6920B4D4A1CF052B6C3053C55E59BE3915178A3D032A1E82E411D9833CE6A978 ====

CUETools Log
[CUETools log; Date: 09.01.2017 21:59:09; Version: 2.1.5]
[CTDB TOCID: TK844gxDGPV6y4RbkSkxvy9IDnw-] found.
Track | CTDB Status
1 | (1/1) Accurately ripped
2 | (1/1) Accurately ripped
3 | (1/1) Accurately ripped
4 | (1/1) Accurately ripped
5 | (1/1) Accurately ripped
6 | (1/1) Accurately ripped
7 | (1/1) Accurately ripped
8 | (1/1) Accurately ripped
9 | (1/1) Accurately ripped
10 | (1/1) Accurately ripped
11 | (1/1) Accurately ripped
12 | (1/1) Accurately ripped
13 | (1/1) Accurately ripped
14 | (1/1) Accurately ripped
15 | (1/1) Accurately ripped
16 | (1/1) Accurately ripped
17 | (1/1) Accurately ripped
18 | (1/1) Accurately ripped
19 | (1/1) Accurately ripped
[AccurateRip ID: 001f102c-01c0f26f-030e8113] found.
Track [ CRC | V2 ] Status
01 [3fac683f|ef02a725] (0+1/1) Accurately ripped
02 [60ead62f|6a956ee0] (0+1/1) Accurately ripped
03 [6dc9a54f|0c0aebc1] (0+1/1) Accurately ripped
04 [f5876bed|1b686cdb] (0+1/1) Accurately ripped
05 [28fa41bc|6c279468] (0+1/1) Accurately ripped
06 [627eab55|e076d1a7] (0+1/1) Accurately ripped
07 [6e9c83ca|c72ae153] (0+1/1) Accurately ripped
08 [c85a6487|a5865241] (0+1/1) Accurately ripped
09 [e6378d03|5a529a1c] (0+1/1) Accurately ripped
10 [2eb703ae|fd49a585] (0+1/1) Accurately ripped
11 [7ce0e792|46019365] (0+1/1) Accurately ripped
12 [1698b51f|bb0fbc39] (0+1/1) Accurately ripped
13 [186e0517|db8187e1] (0+1/1) Accurately ripped
14 [caefa13d|eeeeec48] (0+1/1) Accurately ripped
15 [2eb51802|1bec811c] (0+1/1) Accurately ripped
16 [d47d5db1|8a2ef013] (0+1/1) Accurately ripped
17 [3a9614d8|ef7e132a] (0+1/1) Accurately ripped
18 [ba2bfdaa|0974be43] (0+1/1) Accurately ripped
19 [18f3c651|b6ae0e96] (0+1/1) Accurately ripped

Track Peak [ CRC32 ] [W/O NULL] [ LOG ]
– 91,6 [CA4D5D70] [B17AA64D] CRC32
01 58,9 [838C39FB] [B13BACB0]
02 76,3 [0D937C1C] [F3A8C39E]
03 40,0 [F57DEF68] [F34523D2]
04 60,8 [308D8617] [D76F09DD]
05 81,8 [21A0DB90] [4501C9CF]
06 39,0 [3AB5B657] [95A20B32]
07 52,6 [7DE519BF] [F9225D4B]
08 86,9 [47F964F5] [F02CC492]
09 61,1 [4C0AD37F] [1CE6D1F8]
10 78,3 [39E6A406] [32C4C743]
11 50,3 [93B4263A] [80FD029D]
12 64,9 [0EFFEAB1] [F1279263]
13 91,6 [1B50BF96] [569CB6D0]
14 60,2 [7F08BF16] [409CDE02]
15 55,2 [91B6F091] [F90F6EC0]
16 55,9 [B7C2E585] [7A886190]
17 48,1 [ABD899DE] [6FAC5B6E]
18 43,7 [B1827D72] [A2B0BAC2]
19 42,0 [F5199261] [3B33B1E6]

Performers:
Ariadne Daskalakis, baroque violin
Ensemble Vintage Köln
Gerald Hambitzer, harpsichord and organ
Rainer Zipperling, viola da gamba
Simon Martyn-Ellis, theorbo

Thanks to the Original ripper A-Z!

Download:

Ariadne Daskalakis, Ensemble Vintage Köln – Biber – The Rosary Sonatas (2015) Download, Warez, DDL, Free, Full Album, Torrent, Legal.

Tags:

  • Ariadne Daskalakis Ensemble Vintage Köln download
  • Biber The Rosary Sonatas - Daskalakis Ensemble Vintage Köln -mp3
Download