Aretha Franklin – Aretha Arrives (1967)

Download
Aretha Franklin - Aretha Arrives (1967)

Aretha Franklin – Aretha Arrives (1967)
Soul | 1cd | EAC Rip | Flac + Cue + Log | covers
Atlantic/Rhino, 8122 79926 9 | rem: 2008 | 190Mb

Recorded in 1967 after the first flush of back-to-back successes with "Respect" and "I Never Loved a Man," this captures Aretha Franklin in peak form. Lady Soul provides her own piano accompaniment on the majority of tracks here, and the core band is the same one that provided the fire on her previous album. The tunes are an eclectic batch, and while "Baby, I Love You" was the hit of the album, Franklin turns in strong versions of "Satisfaction," "You Are My Sunshine," "Night Life," "Ain’t Nobody (Gonna Turn Me Around)," and a quirky cover of "96 Tears" for good measure. An essential addition to her discography. ~Allmusic

Track listing
01. Satisfaction (2:38)
02. You Are My Sunshine (4:19)
03. Never Let Me Go (2:51)
04. 96 Tears (2:18)
05. Prove It (2:57)
06. Night Life (3:10)
07. That’s Life (3:27)
08. I Wonder (4:22)
09. Ain’t Nobody (Gonna Turn Me Around) (2:34)
10. Going Down Slow (4:29)
11. Baby, I Love You (2:44)

eac log:
Exact Audio Copy V0.99 prebeta 4 from 23. January 2008

EAC extraction logfile from 7. October 2008, 19:13

Aretha Franklin / Aretha Arrives

Used drive : LITE-ON CD-RW SOHR-5238S Adapter: 1 ID: 1

Read mode : Secure
Utilize accurate stream : Yes
Defeat audio cache : Yes
Make use of C2 pointers : No

Read offset correction : 6
Overread into Lead-In and Lead-Out : No
Fill up missing offset samples with silence : Yes
Delete leading and trailing silent blocks : No
Null samples used in CRC calculations : Yes
Used interface : Installed external ASPI interface

Used output format : Internal WAV Routines
Sample format : 44.100 Hz; 16 Bit; Stereo

TOC of the extracted CD

Track | Start | Length | Start sector | End sector
––––––––––––––––––––––––––––-
1 | 0:00.31 | 2:40.53 | 31 | 12083
2 | 2:41.09 | 4:22.72 | 12084 | 31805
3 | 7:04.06 | 2:54.28 | 31806 | 44883
4 | 9:58.34 | 2:21.72 | 44884 | 55530
5 | 12:20.31 | 3:00.68 | 55531 | 69098
6 | 15:21.24 | 3:14.62 | 69099 | 83710
7 | 18:36.11 | 3:30.68 | 83711 | 99528
8 | 22:07.04 | 4:25.62 | 99529 | 119465
9 | 26:32.66 | 2:38.00 | 119466 | 131315
10 | 29:10.66 | 4:33.48 | 131316 | 151838
11 | 33:44.39 | 2:44.20 | 151839 | 164158

Range status and errors

Selected range

Filename I:ripsAF AAAretha Franklin – Aretha Arrives.wav

Peak level 100.0 %
Range quality 100.0 %
Test CRC DD9973A3
Copy CRC DD9973A3
Copy OK

No errors occurred

End of status report

cuetools report:
[CUETools log; Date: 2017. 01. 09. 12:50:03; Version: 2.1.6]
Pregap length 00:00:31.
[CTDB TOCID: K9P3nY3OTXY3PQayjCtW4zPRAgQ-] found.
Track | CTDB Status
1 | (20/23) Accurately ripped
2 | (20/23) Accurately ripped
3 | (20/23) Accurately ripped
4 | (20/23) Accurately ripped
5 | (20/23) Accurately ripped
6 | (20/23) Accurately ripped
7 | (20/23) Accurately ripped
8 | (20/23) Accurately ripped
9 | (20/23) Accurately ripped
10 | (20/23) Accurately ripped
11 | (20/23) Accurately ripped
[AccurateRip ID: 000eb37f-008034b6-7f088c0b] found.
Track [ CRC | V2 ] Status
01 [9207f520|690600a7] (05+04/34) Accurately ripped
02 [7da7212b|ff30929f] (05+04/33) Accurately ripped
03 [89f66e58|3fadd21d] (05+04/34) Accurately ripped
04 [3b39a609|8fe2cc80] (05+04/33) Accurately ripped
05 [c1ae70f4|6aa7897d] (05+04/34) Accurately ripped
06 [546a64ef|c325f2aa] (05+04/34) Accurately ripped
07 [99acff4c|3f784b2a] (05+04/33) Accurately ripped
08 [ecd7c10a|99de721d] (05+04/34) Accurately ripped
09 [19fa4fc0|08dae1cc] (05+04/34) Accurately ripped
10 [74e028d4|6671d8ce] (05+04/34) Accurately ripped
11 [3105fb72|37bb5321] (05+04/33) Accurately ripped
Offsetted by -6:
01 [d9e0e6c3] (02/34) Accurately ripped
02 [514cb24b] (02/33) Accurately ripped
03 [6df224d6] (02/34) Accurately ripped
04 [6e265a9c] (02/33) Accurately ripped
05 [b245f166] (02/34) Accurately ripped
06 [3fd792b2] (02/34) Accurately ripped
07 [b86a33d5] (02/33) Accurately ripped
08 [3a8933f1] (02/34) Accurately ripped
09 [4365bcff] (02/34) Accurately ripped
10 [123f7b4d] (02/34) Accurately ripped
11 [9a59d4cd] (02/33) Accurately ripped
Offsetted by -36:
01 [651322b3] (00/34) No match (V2 was not tested)
02 [f75bf599] (00/33) No match (V2 was not tested)
03 [3d8e77ad] (00/34) No match (V2 was not tested)
04 [3cdfd5f4] (00/33) No match (V2 was not tested)
05 [d6882ab2] (00/34) No match (V2 was not tested)
06 [6c9a29ae] (00/34) No match (V2 was not tested)
07 [83b0e680] (00/33) No match (V2 was not tested)
08 [027bb0b0] (00/34) No match (V2 was not tested)
09 [e9878df6] (00/34) No match (V2 was not tested)
10 [ac6c177f] (00/34) No match (V2 was not tested)
11 [a940120b] (00/33) No match (V2 was not tested)

Track Peak [ CRC32 ] [W/O NULL] [ LOG ]
– 100,0 [DD9973A3] [1D4FE397] CRC32
01 100,0 [3DB86764] [EE194D32]
02 100,0 [20DC3BD8] [32163D7D]
03 100,0 [22B31E0B] [56ED03A4]
04 100,0 [886FECDC] [33405E86]
05 100,0 [3BFCB400] [83241179]
06 100,0 [20CF81C4] [DCF26C2E]
07 100,0 [637D0F96] [6811171D]
08 100,0 [7FD51731] [9B96485F]
09 100,0 [C76563E6] [7D61A10B]
10 100,0 [5AFCE896] [E8AE06B7]
11 100,0 [1D3DC10A] [4F3A53BA]

original uploader unknown

Aretha Franklin – Aretha Arrives (1967) Download, Warez, DDL, Free, Full Album, Torrent, Legal.

Download