Anugama – 4 Albums (1986-1996)

Download
Anugama - 4 Albums (1986-1996)

Anugama – 4 Albums (1986-1996)
EAC Rip | FLAC (tracks/image+.cue+log) – 1,08 GB | MP3 CBR 320 kbps (LAME 3.93) – 487 MB | Covers – 408 MB
Genre: New Age, Tribal, Ambient | RAR 3% Rec. | Label: Nightingale Records

By bringing together the traditional instrumentation of exotic countries with a new age-style sense of self-exploration and a broad palette of electronic ambient sounds, producer/multi-instrumentalist Anugama garnered enough of a small cult following to sustain a prolific, long-winded career. Though born in Cologne, Germany, where he first developed his exceptional interest in music, Anugama’s curiosity took him to far and distant lands. He spent his teens in Hamburg, where he played drums and worked in a music store, before traveling to Asia in his twenties for a life-changing five-year period. While in Asia, he developed a strong interest in spiritual philosophies and meditation. These interests soon crept into Anugama’s music, which had expanded to comprise his multi-cultural interests: the beats of African and Caribbean music, the rhythms of Hawaii, the meditations of India, and so on.
Anugama began releasing one album after another throughout the ’80s that explored his many interests, with him playing all the instruments. Throughout the ’90s, he didn’t slow down his output, remaining as prolific as before, astounding his cult following with his limitless well of creativity.

Anugama - 4 Albums (1986-1996)

Anugama – Open Sky (1986) [Reissue 1989]
EAC Rip | FLAC (tracks+.cue+log) – 239 MB | MP3 CBR 320 kbps (LAME 3.93) – 103 MB | Covers – 175 MB
Genre: New Age | RAR 3% Rec. | Label: Nightingale Records (NGH-CD-309)

Tracklist:
01. Skydance
02. Open Sky
03. Rosepetal
04. Spacedream
05. Waterfall
06. Travel On
07. Satsang
08. Call Of The Mountain
09. Do-In
10. Morning Breeze

Total time: 43:44

EAC log
Exact Audio Copy V1.0 beta 3 from 29. August 2011

EAC extraction logfile from 30. November 2013, 21:54

Anugama / Open Sky

Used drive : PLEXTOR DVDR PX-760A Adapter: 0 ID: 1

Read mode : Secure
Utilize accurate stream : Yes
Defeat audio cache : Yes
Make use of C2 pointers : No

Read offset correction : 30
Overread into Lead-In and Lead-Out : Yes
Fill up missing offset samples with silence : Yes
Delete leading and trailing silent blocks : No
Null samples used in CRC calculations : Yes
Used interface : Installed external ASPI interface
Gap handling : Appended to previous track

Used output format : User Defined Encoder
Selected bitrate : 1024 kBit/s
Quality : High
Add ID3 tag : No
Command line compressor : C:Program Files (x86)Exact Audio CopyFlacflac.exe
Additional command line options : -8 -V -T "ARTIST=%artist%" -T "TITLE=%title%" -T "ALBUM=%albumtitle%" -T "DATE=%year%" -T "TRACKNUMBER=%tracknr%" -T "GENRE=%genre%" -T "COMMENT=ripped by DrStandBy" %source%

TOC of the extracted CD

Track | Start | Length | Start sector | End sector
––––––––––––––––––––––––––––-
1 | 0:00.00 | 3:34.00 | 0 | 16049
2 | 3:34.00 | 5:53.00 | 16050 | 42524
3 | 9:27.00 | 4:49.00 | 42525 | 64199
4 | 14:16.00 | 3:11.00 | 64200 | 78524
5 | 17:27.00 | 1:54.00 | 78525 | 87074
6 | 19:21.00 | 2:44.00 | 87075 | 99374
7 | 22:05.00 | 7:39.00 | 99375 | 133799
8 | 29:44.00 | 3:23.00 | 133800 | 149024
9 | 33:07.00 | 4:20.00 | 149025 | 168524
10 | 37:27.00 | 6:17.00 | 168525 | 196799

Track 1

Filename Z:LosslessNew AgeAnugama1989 – Anugama – Open Sky (Nightingale #NGH-CD-309)1. Anugama – Skydance.wav

Pre-gap length 0:00:02.00

Peak level 58.3 %
Extraction speed 2.1 X
Track quality 100.0 %
Test CRC A8B35B45
Copy CRC A8B35B45
Accurately ripped (confidence 1) [E427D54A] (AR v1)
Copy OK

Track 2

Filename Z:LosslessNew AgeAnugama1989 – Anugama – Open Sky (Nightingale #NGH-CD-309)2. Anugama – Open Sky.wav

Pre-gap length 0:00:06.00

Peak level 86.2 %
Extraction speed 2.2 X
Track quality 100.0 %
Test CRC 224ABFE7
Copy CRC 224ABFE7
Accurately ripped (confidence 1) [BFA72C10] (AR v1)
Copy OK

Track 3

Filename Z:LosslessNew AgeAnugama1989 – Anugama – Open Sky (Nightingale #NGH-CD-309)3. Anugama – Rosepetal.wav

Pre-gap length 0:00:06.00

Peak level 76.6 %
Extraction speed 2.2 X
Track quality 100.0 %
Test CRC FB14699E
Copy CRC FB14699E
Accurately ripped (confidence 1) [BDDA1F20] (AR v1)
Copy OK

Track 4

Filename Z:LosslessNew AgeAnugama1989 – Anugama – Open Sky (Nightingale #NGH-CD-309)4. Anugama – Spacedream.wav

Pre-gap length 0:00:06.00

Peak level 56.3 %
Extraction speed 2.1 X
Track quality 100.0 %
Test CRC 04234DB7
Copy CRC 04234DB7
Accurately ripped (confidence 1) [F319CD2B] (AR v1)
Copy OK

Track 5

Filename Z:LosslessNew AgeAnugama1989 – Anugama – Open Sky (Nightingale #NGH-CD-309)5. Anugama – Waterfall.wav

Pre-gap length 0:00:06.00

Peak level 81.0 %
Extraction speed 1.8 X
Track quality 100.0 %
Test CRC 16A34778
Copy CRC 16A34778
Accurately ripped (confidence 1) [C8AFFBB4] (AR v1)
Copy OK

Track 6

Filename Z:LosslessNew AgeAnugama1989 – Anugama – Open Sky (Nightingale #NGH-CD-309)6. Anugama – Travel On.wav

Pre-gap length 0:00:06.00

Peak level 68.0 %
Extraction speed 1.3 X
Track quality 99.9 %
Test CRC 4EAAAA2A
Copy CRC 4EAAAA2A
Accurately ripped (confidence 1) [8FECB773] (AR v1)
Copy OK

Track 7

Filename Z:LosslessNew AgeAnugama1989 – Anugama – Open Sky (Nightingale #NGH-CD-309)7. Anugama – Satsang.wav

Pre-gap length 0:00:06.00

Peak level 80.3 %
Extraction speed 2.3 X
Track quality 100.0 %
Test CRC 01B02EAD
Copy CRC 01B02EAD
Accurately ripped (confidence 1) [F5383F98] (AR v1)
Copy OK

Track 8

Filename Z:LosslessNew AgeAnugama1989 – Anugama – Open Sky (Nightingale #NGH-CD-309)8. Anugama – Call Of The Mountain.wav

Pre-gap length 0:00:06.00

Peak level 52.0 %
Extraction speed 2.1 X
Track quality 100.0 %
Test CRC 8AEE982E
Copy CRC 8AEE982E
Accurately ripped (confidence 1) [51FFFD31] (AR v1)
Copy OK

Track 9

Filename Z:LosslessNew AgeAnugama1989 – Anugama – Open Sky (Nightingale #NGH-CD-309)9. Anugama – Do-In.wav

Pre-gap length 0:00:06.00

Peak level 39.0 %
Extraction speed 2.2 X
Track quality 100.0 %
Test CRC E0BB1547
Copy CRC E0BB1547
Accurately ripped (confidence 1) [93576363] (AR v1)
Copy OK

Track 10

Filename Z:LosslessNew AgeAnugama1989 – Anugama – Open Sky (Nightingale #NGH-CD-309)10. Anugama – Morning Breeze.wav

Pre-gap length 0:00:06.00

Peak level 97.7 %
Extraction speed 2.4 X
Track quality 100.0 %
Test CRC 89D7C42D
Copy CRC 89D7C42D
Accurately ripped (confidence 1) [7D20C381] (AR v1)
Copy OK

All tracks accurately ripped

No errors occurred

End of status report

–– CUETools DB Plugin V2.1.4

[CTDB TOCID: 6kICvU_VngykKas13NcSzyLnVi0-] found
Submit result: 6kICvU_VngykKas13NcSzyLnVi0- has been confirmed
Track | CTDB Status
1 | (2/2) Accurately ripped
2 | (2/2) Accurately ripped
3 | (2/2) Accurately ripped
4 | (2/2) Accurately ripped
5 | (2/2) Accurately ripped
6 | (2/2) Accurately ripped
7 | (2/2) Accurately ripped
8 | (2/2) Accurately ripped
9 | (2/2) Accurately ripped
10 | (2/2) Accurately ripped

==== Log checksum EFC46DD959D38C922CB7EA4CDF769DEDAB10027BE8FC7E27CAFAD6FE2FB78372 ====

CUETools log
[CUETools log; Date: 29.12.2016 8:06:45; Version: 2.1.4]
[CTDB TOCID: 6kICvU_VngykKas13NcSzyLnVi0-] found.
Track | CTDB Status
1 | (8/8) Accurately ripped
2 | (8/8) Accurately ripped
3 | (8/8) Accurately ripped
4 | (8/8) Accurately ripped
5 | (8/8) Accurately ripped
6 | (8/8) Accurately ripped
7 | (7/8) Accurately ripped
8 | (7/8) Accurately ripped
9 | (7/8) Accurately ripped
10 | (8/8) Accurately ripped
[AccurateRip ID: 000fce7c-007e7a53-9c0a400a] found.
Track [ CRC | V2 ] Status
01 [e427d54a|268ec68f] (0+0/9) No match
02 [bfa72c10|a8b49b4b] (0+0/9) No match
03 [bdda1f20|4d1fbd90] (0+0/9) No match
04 [f319cd2b|1ca9c8ca] (0+0/9) No match
05 [c8affbb4|59380689] (0+0/9) No match
06 [8fecb773|4b66acc7] (0+0/9) No match
07 [f5383f98|f1a0dc09] (0+0/9) No match
08 [51fffd31|63676058] (0+0/9) No match
09 [93576363|38e90bf8] (0+0/9) No match
10 [7d20c381|090db76c] (0+0/9) No match
Offsetted by 267:
01 [deec24cf] (2/9) Accurately ripped
02 [707ed7a3] (2/9) Accurately ripped
03 [8efb8dd4] (2/9) Accurately ripped
04 [1dcbc77a] (2/9) Accurately ripped
05 [355feef3] (2/9) Accurately ripped
06 [6e349c37] (2/9) Accurately ripped
07 [55d20aa0] (2/9) Accurately ripped
08 [697385aa] (2/9) Accurately ripped
09 [b6c8439e] (2/9) Accurately ripped
10 [78c5e9cd] (2/9) Accurately ripped
Offsetted by -1027:
01 [d003d63d] (0/9) No match (V2 was not tested)
02 [2106da45] (0/9) No match (V2 was not tested)
03 [32da014c] (0/9) No match (V2 was not tested)
04 [2e46de44] (0/9) No match (V2 was not tested)
05 [3317aa5d] (0/9) No match (V2 was not tested)
06 [1f0bf50f] (0/9) No match (V2 was not tested)
07 [999edd50] (0/9) No match (V2 was not tested)
08 [24dc0c10] (0/9) No match (V2 was not tested)
09 [f4f7acb0] (0/9) No match (V2 was not tested)
10 [7d944455] (0/9) No match (V2 was not tested)
Offsetted by 88:
01 [d6ecd972] (0/9) No match (V2 was not tested)
02 [213fc0a8] (0/9) No match (V2 was not tested)
03 [77c0b4c0] (0/9) No match (V2 was not tested)
04 [aeb737a3] (0/9) No match (V2 was not tested)
05 [3936adac] (0/9) No match (V2 was not tested)
06 [88a57d93] (0/9) No match (V2 was not tested)
07 [f755d7d8] (0/9) No match (V2 was not tested)
08 [f8e3e8f9] (0/9) No match (V2 was not tested)
09 [2b01dd3b] (0/9) No match (V2 was not tested)
10 [5276d5e1] (0/9) No match (V2 was not tested)

Track Peak [ CRC32 ] [W/O NULL] [ LOG ]
– 97,7 [C5F97478] [4FBB5B77]
01 58,3 [A8B35B45] [C196B5D3] CRC32
02 86,2 [224ABFE7] [71B6FAB5] CRC32
03 76,6 [FB14699E] [7418F99E] CRC32
04 56,3 [04234DB7] [118BF44B] CRC32
05 81,0 [16A34778] [2BB968DD] CRC32
06 68,0 [4EAAAA2A] [2CCF1793] CRC32
07 80,3 [01B02EAD] [0E102160] CRC32
08 52,0 [8AEE982E] [3EBB3FDC] CRC32
09 39,0 [E0BB1547] [B931634F] CRC32
10 97,7 [89D7C42D] [EB375233] CRC32

Anugama - 4 Albums (1986-1996)

Anugama – Healing (1989) [Reissue 1996]
EAC Rip | FLAC (image+.cue+log) – 284 MB | MP3 CBR 320 kbps (LAME 3.93) – 118 MB | Covers – 70 MB
Genre: New Age, Ambient | RAR 3% Rec. | Label: Nightingale Records (NGH-CD-0319-2)

Tracklist:
01. Healing Earth
02. Aquarius

Total time: 50:11

EAC log
Exact Audio Copy V0.99 prebeta 5 from 4. May 2009

EAC extraction logfile from 21. June 2010, 14:02

Anugama / Healing

Used drive : PIONEER DVD-RW DVR-215D Adapter: 2 ID: 0

Read mode : Secure
Utilize accurate stream : Yes
Defeat audio cache : Yes
Make use of C2 pointers : No

Read offset correction : 48
Overread into Lead-In and Lead-Out : No
Fill up missing offset samples with silence : Yes
Delete leading and trailing silent blocks : No
Null samples used in CRC calculations : Yes
Used interface : Installed external ASPI interface

Used output format : User Defined Encoder
Selected bitrate : 768 kBit/s
Quality : High
Add ID3 tag : No
Command line compressor : C:Program FilesExact Audio CopyFLACFLAC.EXE
Additional command line options : -T "DATE=%y" -T "GENRE=%m" -8 -V %s

TOC of the extracted CD

Track | Start | Length | Start sector | End sector
––––––––––––––––––––––––––––-
1 | 0:00.00 | 25:09.59 | 0 | 113233
2 | 25:09.59 | 25:01.16 | 113234 | 225824

Range status and errors

Selected range

Filename D:torrentripped by boccadorAnugama – Healing (Remastered)Anugama – Healing.wav

Peak level 99.9 %
Range quality 100.0 %
Test CRC 0A26D1E2
Copy CRC 0A26D1E2
Copy OK

No errors occurred

AccurateRip summary

Track 1 accurately ripped (confidence 1) [ACF166BA]
Track 2 accurately ripped (confidence 1) [59CDAD52]

All tracks accurately ripped

End of status report

CUETools log
[CUETools log; Date: 25.12.2016 23:35:27; Version: 2.1.4]
[CTDB TOCID: oE6Nsnpt.hVdfCzmxONESSotz6g-] found.
Track | CTDB Status
1 | (1/1) Accurately ripped
2 | (1/1) Accurately ripped
[AccurateRip ID: 00052c73-000dcb08-0a0bc302] found.
Track [ CRC | V2 ] Status
01 [acf166ba|72970713] (2+0/2) Accurately ripped
02 [59cdad52|439236d1] (2+0/2) Accurately ripped

Track Peak [ CRC32 ] [W/O NULL] [ LOG ]
– 99,9 [0A26D1E2] [181A2A2F] CRC32
01 99,9 [FD937A4A] [DFA55D78]
02 77,6 [CB815A1D] [D783E9C3]

Anugama - 4 Albums (1986-1996)

Anugama & Sebastiano – Exotic Dance (1989)
EAC Rip | FLAC (tracks+.cue+log) – 203 MB | MP3 CBR 320 kbps (LAME 3.93) – 93 MB | Covers – 70 MB
Genre: Tribal, Ambient | RAR 3% Rec. | Label: Nightingale Records (NGH-CD-311)

Tracklist:
01. African Journey
02. Dancing Tribe
03. Arabic Journey

Total time: 39:36

EAC log
Exact Audio Copy V1.0 beta 3 from 29. August 2011

EAC extraction logfile from 30. November 2013, 23:52

Anugama & Sebastiano / Exotic Dance

Used drive : PLEXTOR DVDR PX-760A Adapter: 0 ID: 1

Read mode : Secure
Utilize accurate stream : Yes
Defeat audio cache : Yes
Make use of C2 pointers : No

Read offset correction : 30
Overread into Lead-In and Lead-Out : Yes
Fill up missing offset samples with silence : Yes
Delete leading and trailing silent blocks : No
Null samples used in CRC calculations : Yes
Used interface : Installed external ASPI interface
Gap handling : Appended to previous track

Used output format : User Defined Encoder
Selected bitrate : 1024 kBit/s
Quality : High
Add ID3 tag : No
Command line compressor : C:Program Files (x86)Exact Audio CopyFlacflac.exe
Additional command line options : -8 -V -T "ARTIST=%artist%" -T "TITLE=%title%" -T "ALBUM=%albumtitle%" -T "DATE=%year%" -T "TRACKNUMBER=%tracknr%" -T "GENRE=%genre%" -T "COMMENT=ripped by DrStandBy" %source%

TOC of the extracted CD

Track | Start | Length | Start sector | End sector
––––––––––––––––––––––––––––-
1 | 0:00.00 | 14:10.00 | 0 | 63749
2 | 14:10.00 | 4:44.00 | 63750 | 85049
3 | 18:54.00 | 20:42.00 | 85050 | 178199

Track 1

Filename Z:LosslessNew AgeAnugama1989 – Anugama & Sebastiano – Exotic Dance (Nightingale #NGH-CD-311)1. Anugama & Sebastiano – African Journey.wav

Pre-gap length 0:00:02.00

Peak level 99.9 %
Extraction speed 2.4 X
Track quality 100.0 %
Test CRC 7B88C1F7
Copy CRC 7B88C1F7
Accurately ripped (confidence 2) [ED722A70] (AR v2)
Copy OK

Track 2

Filename Z:LosslessNew AgeAnugama1989 – Anugama & Sebastiano – Exotic Dance (Nightingale #NGH-CD-311)2. Anugama & Sebastiano – Dancing Tribe.wav

Pre-gap length 0:00:03.00

Peak level 97.1 %
Extraction speed 2.2 X
Track quality 100.0 %
Test CRC EBAC2550
Copy CRC EBAC2550
Accurately ripped (confidence 2) [D98FC725] (AR v2)
Copy OK

Track 3

Filename Z:LosslessNew AgeAnugama1989 – Anugama & Sebastiano – Exotic Dance (Nightingale #NGH-CD-311)3. Anugama & Sebastiano – Arabic Journey.wav

Pre-gap length 0:00:03.00

Peak level 93.4 %
Extraction speed 2.4 X
Track quality 99.9 %
Test CRC F7E7D65C
Copy CRC F7E7D65C
Accurately ripped (confidence 2) [39374041] (AR v2)
Copy OK

All tracks accurately ripped

No errors occurred

End of status report

–– CUETools DB Plugin V2.1.4

[CTDB TOCID: B7LcscP3pnlbZFh8gNUPTheEbiA-] found
Submit result: B7LcscP3pnlbZFh8gNUPTheEbiA- has been confirmed
Track | CTDB Status
1 | (5/6) Accurately ripped
2 | (6/6) Accurately ripped
3 | (6/6) Accurately ripped

==== Log checksum B5FD99B8990744065A1BA7DBD40F6DCC1B8AB746CC65FF6EE0D4E753ED8F43CA ====

CUETools log
[CUETools log; Date: 29.12.2016 8:04:28; Version: 2.1.4]
[CTDB TOCID: B7LcscP3pnlbZFh8gNUPTheEbiA-] found.
Track | CTDB Status
1 | (11/13) Accurately ripped
2 | (13/13) Accurately ripped
3 | (12/13) Accurately ripped
[AccurateRip ID: 0004fd58-0010b71b-1c094803] found.
Track [ CRC | V2 ] Status
01 [babe7e86|ed722a70] (00+03/11) Accurately ripped
02 [7ecb0752|d98fc725] (00+03/11) Accurately ripped
03 [9092bc81|39374041] (00+03/11) Accurately ripped
Offsetted by -226:
01 [957c9bf0] (02/11) Accurately ripped
02 [2730fa00] (02/11) Accurately ripped
03 [c7c810a7] (02/11) Accurately ripped
Offsetted by 1449:
01 [bf2459b9] (03/11) Accurately ripped
02 [a641eb73] (03/11) Accurately ripped
03 [fa1315ba] (03/11) Accurately ripped
Offsetted by 268:
01 [e021034a] (00/11) No match (V2 was not tested)
02 [55af04fe] (00/11) No match (V2 was not tested)
03 [1eac4095] (00/11) No match (V2 was not tested)

Track Peak [ CRC32 ] [W/O NULL] [ LOG ]
– 99,9 [F5523D4B] [E62EEB66]
01 99,9 [7B88C1F7] [68FC0139] CRC32
02 97,1 [EBAC2550] [467155DE] CRC32
03 93,4 [F7E7D65C] [C106E6C5] CRC32

Anugama - 4 Albums (1986-1996)

Anugama – The Lightness of Being (1996)
EAC Rip | FLAC (image+.cue+log) – 356 MB | MP3 CBR 320 kbps (LAME 3.93) – 173 MB | Covers – 93 MB
Genre: New Age | RAR 3% Rec. | Label: Nightingale Records (NGH-CD-0436-2)

Tracklist:
01. Eastern Sun
02. Purple Dawn
03. Silent Joy
04. Tropical Morning
05. Gentle Touch
06. Morning Glory
07. Call of the Search
08. IO-Moon of Jupiter
09. Song of the Whales
10. Eternal Traveler
11. Shaku Sunset
12. The Empty Sky
13. Ocean & Tambura

Total time: 01:13:32

EAC log
Exact Audio Copy V0.99 prebeta 5 from 4. May 2009

EAC extraction logfile from 12. May 2009, 18:33

Anugama / The Lightness of Being

Used drive : PIONEER DVD-RW DVR-216L Adapter: 2 ID: 0

Read mode : Secure
Utilize accurate stream : Yes
Defeat audio cache : Yes
Make use of C2 pointers : No

Read offset correction : 96
Overread into Lead-In and Lead-Out : No
Fill up missing offset samples with silence : Yes
Delete leading and trailing silent blocks : No
Null samples used in CRC calculations : Yes
Used interface : Native Win32 interface for Win NT & 2000

Used output format : User Defined Encoder
Selected bitrate : 128 kBit/s
Quality : High
Add ID3 tag : No
Command line compressor : C:Program FilesFLACflac.exe
Additional command line options : -8 -V %s %d

TOC of the extracted CD

Track | Start | Length | Start sector | End sector
––––––––––––––––––––––––––––-
1 | 0:00.00 | 2:47.22 | 0 | 12546
2 | 2:47.22 | 4:31.69 | 12547 | 32940
3 | 7:19.16 | 6:10.26 | 32941 | 60716
4 | 13:29.42 | 8:37.66 | 60717 | 99557
5 | 22:07.33 | 6:01.57 | 99558 | 126689
6 | 28:09.15 | 5:06.32 | 126690 | 149671
7 | 33:15.47 | 5:51.44 | 149672 | 176040
8 | 39:07.16 | 3:30.38 | 176041 | 191828
9 | 42:37.54 | 4:51.21 | 191829 | 213674
10 | 47:29.00 | 5:27.13 | 213675 | 238212
11 | 52:56.13 | 5:28.68 | 238213 | 262880
12 | 58:25.06 | 6:35.17 | 262881 | 292522
13 | 65:00.23 | 8:32.07 | 292523 | 330929

Range status and errors

Selected range

Filename D:The lightness of beingAnugama – The Lightness of Being.wav

Peak level 98.1 %
Range quality 100.0 %
Test CRC D0977B0F
Copy CRC D0977B0F
Copy OK

No errors occurred

End of status report

CUETools log
[CUETools log; Date: 29.12.2016 7:43:58; Version: 2.1.4]
[CTDB TOCID: eSs9CyomMPVX_pRdOWLb3KfkU1Y-] found.
Track | CTDB Status
1 | (2/4) Accurately ripped
2 | (2/4) Accurately ripped
3 | (2/4) Accurately ripped
4 | (2/4) Accurately ripped
5 | (2/4) Accurately ripped
6 | (2/4) Accurately ripped
7 | (2/4) Accurately ripped
8 | (2/4) Accurately ripped
9 | (2/4) Accurately ripped
10 | (2/4) Accurately ripped
11 | (2/4) Accurately ripped
12 | (2/4) Accurately ripped
13 | (2/4) Accurately ripped
[AccurateRip ID: 002163b9-01520dc5-c6113c0d] found.
Track [ CRC | V2 ] Status
01 [bebaa7c6|0461d145] (0+1/2) Accurately ripped
02 [f0d4db4b|28ca2c51] (0+1/2) Accurately ripped
03 [f70fa476|df804f2f] (0+1/2) Accurately ripped
04 [fe32636e|42b6c608] (0+1/2) Accurately ripped
05 [66af0c61|a6b365bb] (0+1/2) Accurately ripped
06 [c222eada|bf013f56] (0+1/2) Accurately ripped
07 [c152304a|f7706b64] (0+1/2) Accurately ripped
08 [cd77803a|4a9f5486] (0+1/2) Accurately ripped
09 [73c98572|d8d1300a] (0+1/2) Accurately ripped
10 [38c08e90|117dc5f1] (0+1/2) Accurately ripped
11 [3170e17a|d57da7ad] (0+1/2) Accurately ripped
12 [e5a7c380|2b66c064] (0+1/2) Accurately ripped
13 [cb2e3522|ca3103a3] (0+1/2) Accurately ripped

Track Peak [ CRC32 ] [W/O NULL] [ LOG ]
– 98,1 [D0977B0F] [37E01CAF] CRC32
01 96,2 [3421A371] [17EF6D4B]
02 98,1 [099CE2F7] [13C99A1C]
03 61,1 [75204CCB] [840355B8]
04 70,5 [E26B0ACA] [501E3922]
05 59,5 [241610AC] [57F92A51]
06 46,2 [F59EDBD6] [B8724CC3]
07 66,4 [71D48083] [88C41BBD]
08 73,0 [D5EFBA90] [10322742]
09 56,5 [378ED5DA] [E723FB79]
10 49,6 [7CED3353] [E23490C2]
11 57,3 [3A1A5CA0] [646EDB09]
12 38,8 [5A7F9F2A] [967B137E]
13 18,4 [EFFD9682] [C2AE9F89]

Thanks to DrStandBy, boccador, Aptor

Welcome to My Blog!

Anugama – 4 Albums (1986-1996) Download, Warez, DDL, Free, Full Album, Torrent, Legal.

Download