Anthony Twiner, Royal Opera House, Marianela Nunez, Carlos Acosta – Herold: La fille mal gardee (2009) [Blu-Ray]

Download
Anthony Twiner, Royal Opera House, Marianela Nunez, Carlos Acosta - Herold: La fille mal gardee (2009) [Blu-Ray]

Hérold – La fille mal gardée (Anthony Twiner, Marianela Nuñez, Carlos Acosta) (2009) [Blu-Ray]
BluRay | BDMV | MPEG-4 AVC Video / 1080i / 29,970 fps | 107 min | 32,3 Gb
Audio1: LPCM Audio / 2.0 / 24-bit | Audio2: LPCM Audio / 5.1 / 48 kHz / 6912 kbps / 24-bit

BluRay-rip | AVC | MKV 1920×1080 / 6215 kbps / 29,97 fps | 107 min | 9,88 Gb
Audio: PCM / 6ch / 48.0 KHz / 24 bits
Classical | Label: OPUS ARTE

Ever since it’s triumphant premiere in January 1960, Frederick Ashton’s La fille mal gardée has been esteemed as one of his happiest creations. This is a charming piece, elegantly performed, a village love affair set in the idyllic Constable landscape of Ashton’s imagination. Marianela Nuñez and Carlos Acosta would be show-stoppers in almost any suitable role, but as Lise and Colas they are superb. William Tuckett and Jonathan Howells, in the comic roles of Simone and Alain respectively, are every bit as arresting, both displaying a certain genius for knockabout. The luminously colourful Osbert Lancaster designs, together with the vitality of The Royal Ballet’s dancing and vibrant playing from the Orchestra of the Royal Opera House under the baton of Anthony Twiner, serve to augment the harmless good fun at which Ashton excels.

Cast:
Lise – Marianela Nuñez
Colas – Carlos Acosta
Widow Simone – William Tuckett
Alain – Jonathan Howells
The Orchestra of the Royal Opera House
Conductor – Anthony Twiner
Choreography – Frederick Ashton

MediaInfo BD
General
ID : 0 (0x0)
Complete name : C:LA FILLE MAL GARDEEBDMVSTREAM0005.m2ts
Format : BDAV
Format/Info : Blu-ray Video
File size : 35.7 GiB
Duration : 1h 47mn
Overall bit rate mode : Variable
Overall bit rate : 47.5 Mbps
Maximum Overall bit rate : 48.0 Mbps

Video
ID : 4113 (0x1011)
Menu ID : 1 (0x1)
Format : AVC
Format/Info : Advanced Video Codec
Format profile : High@L4.1
Format settings, CABAC : Yes
Format settings, ReFrames : 4 frames
Codec ID : 27
Duration : 1h 47mn
Bit rate mode : Constant
Bit rate : 36.0 Mbps
Width : 1 920 pixels
Height : 1 080 pixels
Display aspect ratio : 16:9
Frame rate : 29.970 fps
Standard : NTSC
Color space : YUV
Chroma subsampling : 4:2:0
Bit depth : 8 bits
Scan type : MBAFF
Bits/(Pixel*Frame) : 0.579
Stream size : 27.4 GiB (77%)
Color primaries : BT.709
Transfer characteristics : BT.709
Matrix coefficients : BT.709

Audio #1
ID : 4352 (0x1100)
Menu ID : 1 (0x1)
Format : PCM
Format settings, Endianness : Big
Format settings, Sign : Signed
Muxing mode : Blu-ray
Codec ID : 128
Duration : 1h 47mn
Bit rate mode : Constant
Bit rate : 2 304 Kbps
Channel(s) : 2 channels
Channel positions : Front: L R
Sampling rate : 48.0 KHz
Bit depth : 24 bits
Stream size : 1.73 GiB (5%)

Audio #2
ID : 4353 (0x1101)
Menu ID : 1 (0x1)
Format : PCM
Format settings, Endianness : Big
Format settings, Sign : Signed
Muxing mode : Blu-ray
Codec ID : 128
Duration : 1h 47mn
Bit rate mode : Constant
Bit rate : 6 912 Kbps
Channel(s) : 6 channels
Channel positions : Front: L C R, Side: L R, LFE
Sampling rate : 48.0 KHz
Bit depth : 24 bits
Stream size : 5.20 GiB (15%)

MediaInfo BDRip
General
Unique ID : 200042358459497033242617893080214709723 (0x967EC1BFA16717F287A2FF148B86A5DB)
Complete name : С:La_Fille_mal _gardee.mkv
Format : Matroska
Format version : Version 2
File size : 9.89 GiB
Duration : 1h 47mn
Overall bit rate : 13.1 Mbps
Movie name : La_Fille_mal _gardee
Encoded date : UTC 2017-07-14 16:37:37
Writing application : DVDFab 9.1.6.8
Writing library : libebml v0.7.8 + libmatroska v0.8.1

Video
ID : 1
Format : AVC
Format/Info : Advanced Video Codec
Format profile : High@L4.1
Format settings, CABAC : Yes
Format settings, ReFrames : 2 frames
Codec ID : V_MPEG4/ISO/AVC
Duration : 1h 47mn
Nominal bit rate : 6 215 Kbps
Width : 1 920 pixels
Height : 1 080 pixels
Display aspect ratio : 16:9
Frame rate mode : Constant
Frame rate : 29.970 fps
Color space : YUV
Chroma subsampling : 4:2:0
Bit depth : 8 bits
Scan type : Progressive
Bits/(Pixel*Frame) : 0.100
Writing library : x264 core 142
Encoding settings : cabac=1 / ref=1 / deblock=1:-1:-1 / analyse=0x3:0 / me=hex / subme=5 / psy=0 / mixed_ref=0 / me_range=16 / chroma_me=1 / trellis=0 / 8x8dct=1 / cqm=0 / deadzone=21,11 / fast_pskip=1 / chroma_qp_offset=0 / threads=8 / lookahead_threads=2 / sliced_threads=0 / nr=0 / decimate=1 / interlaced=0 / bluray_compat=0 / constrained_intra=0 / bframes=2 / b_pyramid=0 / b_adapt=1 / b_bias=0 / direct=1 / weightb=1 / open_gop=0 / weightp=0 / keyint=24 / keyint_min=13 / scenecut=40 / intra_refresh=0 / rc=abr / mbtree=0 / bitrate=6215 / ratetol=1.0 / qcomp=0.60 / qpmin=0 / qpmax=69 / qpstep=4 / ip_ratio=1.40 / pb_ratio=1.30 / aq=1:1.00
Default : Yes
Forced : No
Color primaries : BT.709
Transfer characteristics : BT.709
Matrix coefficients : BT.709
Color range : Limited

Audio
ID : 2
Format : PCM
Codec ID : A_PCM/INT/LIT
Duration : 1h 47mn
Bit rate mode : Constant
Channel(s) : 6 channels
Sampling rate : 48.0 KHz
Bit depth : 24 bits
Language : English
Default : Yes
Forced : No

Menu
00:00:00.000 : en:Chapter 01
00:00:59.059 : en:Chapter 02
00:04:35.108 : en:Chapter 03
00:06:04.764 : en:Chapter 04
00:10:05.938 : en:Chapter 05
00:12:59.779 : en:Chapter 06
00:14:39.545 : en:Chapter 07
00:16:21.914 : en:Chapter 08
00:18:13.358 : en:Chapter 09
00:23:54.933 : en:Chapter 10
00:26:11.136 : en:Chapter 11
00:31:04.596 : en:Chapter 12
00:35:30.962 : en:Chapter 13
00:37:50.268 : en:Chapter 14
00:41:47.838 : en:Chapter 15
00:44:38.342 : en:Chapter 16
00:46:06.764 : en:Chapter 17
00:56:03.693 : en:Chapter 18
00:57:05.922 : en:Chapter 19
01:00:00.496 : en:Chapter 20
01:01:57.146 : en:Chapter 21
01:05:58.754 : en:Chapter 22
01:07:49.899 : en:Chapter 23
01:09:42.011 : en:Chapter 24
01:11:25.147 : en:Chapter 25
01:16:47.836 : en:Chapter 26
01:21:30.719 : en:Chapter 27
01:26:06.661 : en:Chapter 28
01:28:14.522 : en:Chapter 29
01:31:29.650 : en:Chapter 30
01:34:46.347 : en:Chapter 31
01:39:13.447 : en:Chapter 32
01:43:49.556 : en:Chapter 33
01:46:42.996 : en:Chapter 34

All screenshots taken from BDRip

Anthony Twiner, Royal Opera House, Marianela Nunez, Carlos Acosta - Herold: La fille mal gardee (2009) [Blu-Ray]

Anthony Twiner, Royal Opera House, Marianela Nunez, Carlos Acosta – Herold: La fille mal gardee (2009) [Blu-Ray] Download, Warez, DDL, Free, Full Album, Torrent, Legal.

Download