Anssi Karttunen – Lindberg: Al largo, Cello Concerto No. 2 & Era (2016)

Download
Anssi Karttunen - Lindberg: Al largo, Cello Concerto No. 2 & Era (2016)

Anssi Karttunen – Lindberg: Al largo, Cello Concerto No. 2 & Era
Classical | FLAC (tracks)+cue, log, booklet | 66:25 min | 301 MB
Label: Ondine | Tracks: 05 | Rls.date: 2016

Magnus Lindberg (b. 1958) is among the most important European contemporary voices in classical music. This recording includes some of Lindberg’s most recent orchestral works written during and after hiscomposer-in-residence years with the New York Philharmonic Orchestra (2009–12). Lindberg is continuing as the composer-in-residence with the London Philharmonic Orchestra 2014–17.

TRACKLIST
1. Al largo 25:01
2. Cello Concerto No. 2: I. 9:50
3. Cello Concerto No. 2: II. 6:09
4. Cello Concerto No. 2: III. 5:06
5. Era 20:19

EAC Log
Exact Audio Copy V1.1 from 23. June 2015

EAC extraction logfile from 12. August 2016, 13:26

Finnish Radio SO, Lintu, Karttunen / Al Largo – Cello Concerto No. 2 – Era

Used drive : MATSHITADVD-RAM UJ8HC Adapter: 1 ID: 0

Read mode : Secure
Utilize accurate stream : Yes
Defeat audio cache : Yes
Make use of C2 pointers : No

Read offset correction : 6
Overread into Lead-In and Lead-Out : No
Fill up missing offset samples with silence : Yes
Delete leading and trailing silent blocks : No
Null samples used in CRC calculations : Yes
Used interface : Native Win32 interface for Win NT & 2000
Gap handling : Appended to previous track

Used output format : User Defined Encoder
Selected bitrate : 1024 kBit/s
Quality : High
Add ID3 tag : No
Command line compressor : C:Program Files (x86)Exact Audio CopyFlacflac.exe
Additional command line options : -8 -e -V -T "ARTIST=%artist%" -T "TITLE=%title%" -T "ALBUM=%albumtitle%" -T "DATE=%year%" -T "TRACKNUMBER=%tracknr%" -T "GENRE=%genre%" -T "PERFORMER=%albuminterpret%" -T "COMPOSER=%composer%" %haslyrics%–tag-from-file=LYRICS="%lyricsfile%"%haslyrics% -T "ALBUMARTIST=%albumartist%" -T "DISCNUMBER=%cdnumber%" -T "TOTALDISCS=%totalcds%" -T "TOTALTRACKS=%numtracks%" -T "COMMENT=%comment%" %source% -o %dest%

TOC of the extracted CD

Track | Start | Length | Start sector | End sector
––––––––––––––––––––––––––––-
1 | 0:00.00 | 25:01.08 | 0 | 112582
2 | 25:01.08 | 9:50.11 | 112583 | 156843
3 | 34:51.19 | 6:09.45 | 156844 | 184563
4 | 41:00.64 | 5:06.26 | 184564 | 207539
5 | 46:07.15 | 20:19.43 | 207540 | 299007

Track 1

Filename D:UP1 – Al largo.wav

Pre-gap length 0:00:02.00

Peak level 94.0 %
Extraction speed 4.1 X
Track quality 100.0 %
Test CRC DACDBA92
Copy CRC DACDBA92
Accurately ripped (confidence 1) [F826B3F1] (AR v2)
Copy OK

Track 2

Filename D:UP2 – Cello Concerto No.2.wav

Pre-gap length 0:00:07.73

Peak level 78.4 %
Extraction speed 4.9 X
Track quality 100.0 %
Test CRC 5BE61750
Copy CRC 5BE61750
Accurately ripped (confidence 1) [6EEB0B7B] (AR v2)
Copy OK

Track 3

Filename D:UP3 – Cello Concerto No.2 2nd Movement.wav

Peak level 58.8 %
Extraction speed 5.2 X
Track quality 100.0 %
Test CRC B15B7A4F
Copy CRC B15B7A4F
Accurately ripped (confidence 1) [8BCC05B6] (AR v2)
Copy OK

Track 4

Filename D:UP4 – Cello Concerto No.2 3rd Movement.wav

Peak level 63.3 %
Extraction speed 5.2 X
Track quality 100.0 %
Test CRC 80E9FE12
Copy CRC 80E9FE12
Accurately ripped (confidence 1) [91B2570C] (AR v2)
Copy OK

Track 5

Filename D:UP5 – Era.wav

Pre-gap length 0:00:07.00

Peak level 93.5 %
Extraction speed 6.3 X
Track quality 100.0 %
Test CRC FC1C4B8B
Copy CRC FC1C4B8B
Accurately ripped (confidence 1) [C3381E87] (AR v2)
Copy OK

All tracks accurately ripped

No errors occurred

End of status report

–– CUETools DB Plugin V2.1.6

[CTDB TOCID: uQ22x0GQYuuFPOGL7yJAH1ZqS9Q-] found
Submit result: uQ22x0GQYuuFPOGL7yJAH1ZqS9Q- has been confirmed
Track | CTDB Status
1 | (1/1) Accurately ripped
2 | (1/1) Accurately ripped
3 | (1/1) Accurately ripped
4 | (1/1) Accurately ripped
5 | (1/1) Accurately ripped

==== Log checksum 1D093BC026ABF353B5EA5017DEF602EAC811A650A5E9FA2686C1235261D522F6 ====

Anssi Karttunen - Lindberg: Al largo, Cello Concerto No. 2 & Era (2016)
Thanks to the Original customer.
My Blog mp3, flac & HDtracks

Anssi Karttunen – Lindberg: Al largo, Cello Concerto No. 2 & Era (2016) Download, Warez, DDL, Free, Full Album, Torrent, Legal.

Download