Anouar Brahem – The Astounding Eyes Of Rita (2009, ECM # ECM 2075) [RE-UP]

Download
Anouar Brahem - The Astounding Eyes Of Rita (2009, ECM # ECM 2075) [RE-UP]

Anouar Brahem – The Astounding Eyes Of Rita
EAC+LOG+CUE | WV: 457 MB | Full Artwork | 5% Recovery Info
Label/Cat#: ECM # 2075 | Country/Year: Germany 2009
Genre: Jazz, Folk, New Age | Style: Middle Eastern Folk, Ethnic Fusion, Jazz

MD5 [X] CUE [X] LOG [X] INFO TEXT [X] ARTWORK [X]

selfrip [ ] not my rip [X]

Anouar Brahem - The Astounding Eyes Of Rita (2009, ECM # ECM 2075) [RE-UP]

Anouar Brahem - The Astounding Eyes Of Rita (2009, ECM # ECM 2075) [RE-UP]

EAC
Exact Audio Copy V0.99 prebeta 4 from 23. January 2008

EAC extraction logfile from 27. December 2009, 16:03

Anouar Brahem / The Astounding Eyes Of Rita

Used drive : HL-DT-STDVDRAM GH20NS10 Adapter: 2 ID: 1

Read mode : Secure
Utilize accurate stream : Yes
Defeat audio cache : Yes
Make use of C2 pointers : No

Read offset correction : 667
Overread into Lead-In and Lead-Out : No
Fill up missing offset samples with silence : Yes
Delete leading and trailing silent blocks : No
Null samples used in CRC calculations : Yes
Used interface : Installed external ASPI interface

Used output format : Internal WAV Routines
Sample format : 44.100 Hz; 16 Bit; Stereo

TOC of the extracted CD

Track | Start | Length | Start sector | End sector
––––––––––––––––––––––––––––-
1 | 0:00.00 | 7:44.34 | 0 | 34833
2 | 7:44.34 | 3:56.59 | 34834 | 52592
3 | 11:41.18 | 6:34.03 | 52593 | 82145
4 | 18:15.21 | 8:41.66 | 82146 | 121286
5 | 26:57.12 | 4:51.64 | 121287 | 143175
6 | 31:49.01 | 7:17.01 | 143176 | 175951
7 | 39:06.02 | 7:48.07 | 175952 | 211058
8 | 46:54.09 | 6:35.11 | 211059 | 240694

Range status and errors

Selected range

Filename Z:NetLabAnouar Brahem – The Astounding Eyes Of Rita (2009) {ECM 2075}Anouar Brahem – The Astounding Eyes Of Rita.wav

Peak level 96.6 %
Range quality 100.0 %
Test CRC E10E461C
Copy CRC E10E461C
Copy OK

No errors occurred

AccurateRip summary

Track 1 accurately ripped (confidence 17) [EA56DFC9]
Track 2 accurately ripped (confidence 17) [14BFCB0E]
Track 3 accurately ripped (confidence 17) [CE7842AA]
Track 4 accurately ripped (confidence 16) [FDB5B7AD]
Track 5 accurately ripped (confidence 17) [A1C54FD1]
Track 6 accurately ripped (confidence 17) [0A7B0D18]
Track 7 accurately ripped (confidence 17) [FB731003]
Track 8 accurately ripped (confidence 16) [EA087227]

All tracks accurately ripped

End of status report

auCDtect_Verbose
auCDtect: CD records authenticity detector, version 0.8.2
Copyright © 2004 Oleg Berngardt. All rights reserved.
Copyright © 2004 Alexander Djourik. All rights reserved.

Detect mode (0..40 with 0 = most accurate): 8 (default)

––––––––––––––––––––––––––––––
[01 – The Lover Of Beirut.wav]
Detected average hi-boundary frequency: 2.035112e+004 Hz
Detected average lo-boundary frequency: 1.438574e+004 Hz
Detected average hi-cut frequency: 2.182359e+004 Hz
Detected average lo-cut frequency: 1.183524e+004 Hz
Maximum probablis boundary frequency: 2.189100e+004 Hz
Coefficient of nonlinearity of a phase: 8.656490e-001
First order smothness: 4.522059e-001
Second order smothness: 6.764706e-001
––––––––––––––––––––––––––––––
This track looks like CDDA with probability 100%.

––––––––––––––––––––––––––––––
[02 – Dance With Waves.wav]
Detected average hi-boundary frequency: 2.025816e+004 Hz
Detected average lo-boundary frequency: 1.475404e+004 Hz
Detected average hi-cut frequency: 2.180444e+004 Hz
Detected average lo-cut frequency: 9.360087e+003 Hz
Maximum probablis boundary frequency: 2.132600e+004 Hz
Coefficient of nonlinearity of a phase: 8.632579e-001
First order smothness: 4.770318e-001
Second order smothness: 5.265018e-001
––––––––––––––––––––––––––––––
This track looks like CDDA with probability 100%.

––––––––––––––––––––––––––––––
[03 – Stopover At Djibouti.wav]
Detected average hi-boundary frequency: 2.048799e+004 Hz
Detected average lo-boundary frequency: 1.605669e+004 Hz
Detected average hi-cut frequency: 2.187201e+004 Hz
Detected average lo-cut frequency: 1.066700e+004 Hz
Maximum probablis boundary frequency: 2.189100e+004 Hz
Coefficient of nonlinearity of a phase: 8.674924e-001
First order smothness: 5.970149e-001
Second order smothness: 5.266525e-001
––––––––––––––––––––––––––––––
This track looks like CDDA with probability 100%.

––––––––––––––––––––––––––––––
[04 – The Astounding Eyes Of Rita.wav]
Detected average hi-boundary frequency: 2.026292e+004 Hz
Detected average lo-boundary frequency: 1.498556e+004 Hz
Detected average hi-cut frequency: 2.186338e+004 Hz
Detected average lo-cut frequency: 8.610865e+003 Hz
Maximum probablis boundary frequency: 2.189100e+004 Hz
Coefficient of nonlinearity of a phase: 3.883170e-001
First order smothness: 5.346216e-001
Second order smothness: 5.008052e-001
––––––––––––––––––––––––––––––
This track looks like CDDA with probability 100%.

––––––––––––––––––––––––––––––
[05 – Al Birwa.wav]
Detected average hi-boundary frequency: 2.046373e+004 Hz
Detected average lo-boundary frequency: 1.646140e+004 Hz
Detected average hi-cut frequency: 2.186867e+004 Hz
Detected average lo-cut frequency: 1.034257e+004 Hz
Maximum probablis boundary frequency: 2.189100e+004 Hz
Coefficient of nonlinearity of a phase: 1.655265e-001
First order smothness: 5.260116e-001
Second order smothness: 4.739884e-001
––––––––––––––––––––––––––––––
This track looks like CDDA with probability 100%.

––––––––––––––––––––––––––––––
[06 – Galilee Mon Amour.wav]
Detected average hi-boundary frequency: 2.047446e+004 Hz
Detected average lo-boundary frequency: 1.620420e+004 Hz
Detected average hi-cut frequency: 2.186891e+004 Hz
Detected average lo-cut frequency: 9.768255e+003 Hz
Maximum probablis boundary frequency: 2.189100e+004 Hz
Coefficient of nonlinearity of a phase: 1.105686e-001
First order smothness: 5.788462e-001
Second order smothness: 4.519231e-001
––––––––––––––––––––––––––––––
This track looks like CDDA with probability 100%.

––––––––––––––––––––––––––––––
[07 – Waking State.wav]
Detected average hi-boundary frequency: 2.024600e+004 Hz
Detected average lo-boundary frequency: 1.402731e+004 Hz
Detected average hi-cut frequency: 2.186092e+004 Hz
Detected average lo-cut frequency: 7.081644e+003 Hz
Maximum probablis boundary frequency: 2.189600e+004 Hz
Coefficient of nonlinearity of a phase: 6.981272e-001
First order smothness: 4.357143e-001
Second order smothness: 5.910714e-001
––––––––––––––––––––––––––––––
This track looks like CDDA with probability 100%.

––––––––––––––––––––––––––––––
[08 – For No Apparent Reason.wav]
Detected average hi-boundary frequency: 2.030889e+004 Hz
Detected average lo-boundary frequency: 1.446909e+004 Hz
Detected average hi-cut frequency: 2.188808e+004 Hz
Detected average lo-cut frequency: 8.583304e+003 Hz
Maximum probablis boundary frequency: 2.189100e+004 Hz
Coefficient of nonlinearity of a phase: 9.271984e-001
First order smothness: 5.412262e-001
Second order smothness: 4.799154e-001
––––––––––––––––––––––––––––––
This track looks like CDDA with probability 100%.

Dynamic
foobar2000 1.1.15 / Dynamic Range Meter 1.1.1
log date: 2012-09-25 13:09:11

––––––––––––––––––––––––––––––––––––––––
Analyzed: Anouar Brahem / The Astounding Eyes Of Rita
––––––––––––––––––––––––––––––––––––––––

DR Peak RMS Duration Track
––––––––––––––––––––––––––––––––––––––––
DR13 -0.30 dB -17.24 dB 7:44 01-The Lover Of Beirut
DR11 -0.30 dB -14.66 dB 3:57 02-Dance With Waves
DR12 -0.30 dB -15.58 dB 6:34 03-Stopover At Djibouti
DR11 -0.30 dB -14.05 dB 8:42 04-The Astounding Eyes Of Rita
DR11 -0.30 dB -14.62 dB 4:52 05-Al Birwa
DR12 -0.30 dB -15.38 dB 7:17 06-Galilee Mon Amour
DR13 -0.30 dB -17.09 dB 7:48 07-Waking State
DR12 -0.30 dB -15.18 dB 6:35 08-For No Apparent Reason
––––––––––––––––––––––––––––––––––––––––

Number of tracks: 8
Official DR value: DR12

Samplerate: 44100 Hz
Channels: 2
Bits per sample: 16
Bitrate: 562 kbps
Codec: WavPack
================================================================================

CD Info:

Anouar Brahem – The Astounding Eyes Of Rita

Label: EMC Records
Catalog#: 2075
Format: CD, Album
Country: Germany
Released: 2009
Genre: Jazz, Folk, New Age
Style: Traditional Middle Eastern Folk, Ethnic Fusion, Avant-Garde Jazz

Tracklist:

01. The Lover Of Beirut (7:44)
02. Dance With Waves (3:57)
03. Stopover At Djibouti (6:34)
04. The Astounding Eyes Of Rita (8:42)
05. Al Birwa (4:52)
06. Galilee Mon Amour (7:17)
07. Waking State (7:48)
08. For No Apparent Reason (6:35)

Total Time: 00:53:29

Musicians:
Anouar Brahem (Oud)
Klaus Gesing (Bass Clarinet)
Bjoern Meyer (Bass)
Khaled Yassine (Darbouka, Bendir)

Anouar Brahem - The Astounding Eyes Of Rita (2009, ECM # ECM 2075) [RE-UP]

Stereophile Recording of the Month, December 2009. Four stars for Performance and Five stars for Sonics.

Another gorgeous, evocative musical journey from oud master Anouar Brahem who delivers an album of warm, dark sounds and dancing, organic pulses. The music modulates between eastern and western cultures and disciplines – yet the compositions are unmistakably Brahem’s.

Anouar Brahem has developed into one of ECM’s most popular and commercially-successful artists.

“(Brahem) creates music that floats in space, evocatively calling up references to classical music, jazz, Arabic modes and the indefinable beauties of spontaneous improvisation.” – Don Heckman, Los Angeles Times

"From the very first cut here, "The Lover of Beirut", Brahem’s fascinating blend of traditional Eastern-flavored tonalities and his very jazz-like sense of free rhythms mix, in an astonishingly instinctual and intimate way, with Gesing’s moody clarinet, their melodic lines at times doubling before breaking free to bend and swerve off into a melodic maze before slowly returning to their intricate Byzantine dance. The timbre of the clarinet is a perfect match for the oud’s sonorities." – Robert Baird, Stereophile Magazine, Vol. 32, No. 12, pg 119

~Elusivedisc.com

Thanks to pr3ess!

all of my uploads in my blog

===============

Anouar Brahem – The Astounding Eyes Of Rita (2009, ECM # ECM 2075) [RE-UP] Download, Warez, DDL, Free, Full Album, Torrent, Legal.

Download