Andy Gibb – Flowing Rivers (1977) [Reissue 1991] | ViralVideoPk

Daily Dose of Free Downloads

Andy Gibb – Flowing Rivers (1977) [Reissue 1991]

Download

Andy Gibb - Flowing Rivers (1977) [Reissue 1991]

Andy Gibb – Flowing Rivers (1977) [Reissue 1991]
EAC Rip | FLAC: Image+Cue+Log | 285 Gb | MP3 CBR 320 kbps | 115 Mb | Scans | 104 Mb | Time: 38:37
Polydor | 539 921-2
Pop Rock, Country Rock, Disco

FLOWING RIVERS Flowing Rivers is the debut studio album by English singer-songwriter Andy Gibb. The album was produced by Albhy Galuten and Karl Richardson, with Barry Gibb on two tracks. It was released in September 1977 on RSO.

Though Andy Gibb’s star power would peak with 1978’s Shadow Dancing, his Flowing Rivers debut slammed him straight into the limelight and onto the top of the charts – twice – in 1977. A talented musician in his own right, Gibb hit the mainstream under the aegis of producer Robert Stigwood, quite independently of his brothers, the Bee Gees. Although it’s uneven and patchy in places, when this LP is good, it’s really good.

Andy Gibb - Flowing Rivers (1977) [Reissue 1991]
Brothers Gibb
Wikipedia | Amazon

Track Listing

01. I Just Want To Be Your Everything (03:48)
02. Words And Music (04:42)
03. Dance To The Light Of The Morning (03:21)
04. Too Many Looks In Your Eyes (04:15)
05. Starlight (03:36)
06. (Love Is) Thicker Than Water (04:19)
07. Flowing Rivers (03:37)
08. Come Home For The Winter (04:05)
09. Let It Be Me (03:35)
10. In The End (03:19)

Produced by Barry Gibb, Albhy Galuten & Karl Richardson

Musicians

• Andy Gibb – vocals
• Barry Gibb – background and harmony vocals on "I Just Want to Be Your Everything", "(Love Is) Thicker Than Water"
• John Sambataro – background vocals
• Joey Murcia, George Terry – guitar
• Joe Walsh – guitar on "I Just Want to Be Your Everything", "(Love Is) Thicker Than Water"
• Don Buzzard – steel guitar
• Paul Harris – piano, keyboards
• Albhy Galuten – synthesizer, orchestral arrangement
• Harold Cowart – bass
• Ron Ziegler – drums

EAC Log
Exact Audio Copy V1.0 beta 3 from 29. August 2011

EAC extraction logfile from 5. July 2013, 0:29

Andy Gibb / Flowing Rivers

Used drive : PIONEER DVD-RW DVR-112D Adapter: 2 ID: 1

Read mode : Secure
Utilize accurate stream : Yes
Defeat audio cache : Yes
Make use of C2 pointers : No

Read offset correction : 48
Overread into Lead-In and Lead-Out : No
Fill up missing offset samples with silence : Yes
Delete leading and trailing silent blocks : No
Null samples used in CRC calculations : Yes
Used interface : Installed external ASPI interface

Used output format : User Defined Encoder
Selected bitrate : 1024 kBit/s
Quality : High
Add ID3 tag : No
Command line compressor : C:Program Files (x86)Exact Audio CopyFlacflac.exe
Additional command line options : -8 -V -T "Date=%year%" -T "Genre=%genre%" -T "COMMENT=ripped by bvstudio®" %source%

TOC of the extracted CD

Track | Start | Length | Start sector | End sector
––––––––––––––––––––––––––––-
1 | 0:00.00 | 3:47.50 | 0 | 17074
2 | 3:47.50 | 4:41.37 | 17075 | 38186
3 | 8:29.12 | 3:21.00 | 38187 | 53261
4 | 11:50.12 | 4:15.00 | 53262 | 72386
5 | 16:05.12 | 3:36.28 | 72387 | 88614
6 | 19:41.40 | 4:18.47 | 88615 | 108011
7 | 24:00.12 | 3:36.68 | 108012 | 124279
8 | 27:37.05 | 4:05.32 | 124280 | 142686
9 | 31:42.37 | 3:34.55 | 142687 | 158791
10 | 35:17.17 | 3:18.70 | 158792 | 173711

Range status and errors

Selected range

Filename F:Bee Gees, Robin, Barry, AndyAndy Gibb1977 – Flowing Rivers (1998 – Polydor. Germany – 539 921-2)Andy Gibb – Flowing Rivers.wav

Peak level 100.0 %
Extraction speed 6.5 X
Range quality 100.0 %
Test CRC D1E397DF
Copy CRC D1E397DF
Copy OK

No errors occurred

AccurateRip summary

Track 1 not present in database
Track 2 not present in database
Track 3 not present in database
Track 4 not present in database
Track 5 not present in database
Track 6 not present in database
Track 7 not present in database
Track 8 not present in database
Track 9 not present in database
Track 10 not present in database

None of the tracks are present in the AccurateRip database

End of status report

–– CUETools DB Plugin V2.1.5

[CTDB TOCID: DXqJ7YkMOD15FySbvsf3JbFtuGY-] found
Submit result: DXqJ7YkMOD15FySbvsf3JbFtuGY- has been confirmed
Track | CTDB Status
1 | (1/1) Accurately ripped
2 | (1/1) Accurately ripped
3 | (1/1) Accurately ripped
4 | (1/1) Accurately ripped
5 | (1/1) Accurately ripped
6 | (1/1) Accurately ripped
7 | (1/1) Accurately ripped
8 | (1/1) Accurately ripped
9 | (1/1) Accurately ripped
10 | (1/1) Accurately ripped

==== Log checksum CBA963DF5D1EBC3524192F341F9FF09CD5F38D63D162A1C24C27E4D6A02EDD0C ====

Many thanks to the original uploader: bvstudio

RELATED Releases:
Andy Gibb 1977 Flowing Rivers [Japanese Ed. 2013]
Andy Gibb 1978 Shadow Dancing [Japanese Ed. 2013]
Andy Gibb 1980 After Dark [Japanese Ed. 2013]

Barry Gibb 1988 Hawks – Music From The Original Soundtrack [Japan 1st Press, 1989]
Barry Gibb 2016 In The Now [Japan 1st Press, Blu-spec CD2]

Bee Gees 1968 Horizontal [Japanese Ed. 1992]
Bee Gees 1968 Idea [Japanese Ed. 1992]
Bee Gees 1969 Odessa [Japanese Ed. 1992]
Bee Gees 1979 Spirits Having Flown [Japanese Ed. 1993]
Bee Gees 1987 E.S.P. [Japan 1st Press]
Bee Gees 1990 Live! One For All (The Very Best Of Bee Gees) [DVD]
Bee Gees 1991 High Civilization [Japan 1st Press]
Bee Gees 1993 Size Isn’t Everything [Japan 1st Press]
Bee Gees 1997 Still Waters [Japan 1st Press, Promo]
Bee Gees 2001 This Is Where Came In [HDCD, Japan 1st Press, Promo]
Bee Gees 2009 The Ultimate Bee Gees [Japanese Ed.] 2CD
Bee Gees 2010 Seventies Collection 1971-1975 [DVD]

Robin Gibb 1983 How Old Are You? [Reissue 1992]
Robin Gibb 2014 50 St. Catherine’s Drive [Digipak]

Andy Gibb – Flowing Rivers (1977) [Reissue 1991] Download, Warez, DDL, Free, Full Album, Torrent, Legal.

Download


  • Recent Posts

  • Recent Tags