Android App Development Fundamentals II, Second Edition [repost]

Download
Android App Development Fundamentals II, Second Edition [repost]

Android App Development Fundamentals II, Second Edition
WEBRip | English | MP4 + Project files | 1280 x 720 | AVC ~451 kbps | 30 fps
AAC | 48.0 Kbps | 44.1 KHz | 1 channel | ~10.5 hours | 3.41 GB
Genre: Video Tutorial

Android Tutorial for Beginners Part II is for Java developers new to the Android development Android App Development Fundamentals, Part II 2/e uses Paul Deitel’s unique "app-driven" approach to get you up and running quickly with Google’s popular Android SDK. The lessons in this LiveLesson build upon those in Android App Development Fundamentals, Part I 2/e. You learn more sophisticated Touch and GUI techniques, as well as how to build database driven apps.

What am I going to get from this course?

Over 157 lectures and 10.5 hours of content!
Activities, Fragments, Intents, Preferences
GUIs, Layouts, Menus, Resource Files, Lists, Adapters, Events, Touch/Gesture Processing
Immersive Mode, Printing Framework, PrintHelper
Assets (Images, Audio), View Animation
Threading, Collections, SQLite Database
Social sharing via implicit intents

MediaInfo:
General
Complete name : 012 Adding Class EraseImageDialogFragment.mp4
Format : MPEG-4
Format profile : Base Media
Codec ID : isom
File size : 4.91 MiB
Duration : 1mn 22s
Overall bit rate mode : Variable
Overall bit rate : 500 Kbps
Encoded date : UTC 2014-04-15 16:01:15
Tagged date : UTC 2014-04-15 16:01:15

Video
ID : 1
Format : AVC
Format/Info : Advanced Video Codec
Format profile : Baseline@L3.1
Format settings, CABAC : No
Format settings, ReFrames : 3 frames
Format settings, GOP : M=1, N=75
Codec ID : avc1
Codec ID/Info : Advanced Video Coding
Duration : 1mn 22s
Bit rate : 451 Kbps
Maximum bit rate : 1 306 Kbps
Width : 1 280 pixels
Height : 720 pixels
Display aspect ratio : 16:9
Frame rate mode : Constant
Frame rate : 30.000 fps
Color space : YUV
Chroma subsampling : 4:2:0
Bit depth : 8 bits
Scan type : Progressive
Bits/(Pixel*Frame) : 0.016
Stream size : 4.43 MiB (90%)
Writing library : Zencoder Video Encoding System
Encoded date : UTC 2014-04-15 16:00:03
Tagged date : UTC 2014-04-15 16:01:15

Audio
ID : 2
Format : AAC
Format/Info : Advanced Audio Codec
Format profile : LC
Codec ID : 40
Duration : 1mn 22s
Bit rate mode : Variable
Bit rate : 48.0 Kbps
Maximum bit rate : 51.9 Kbps
Channel(s) : 1 channel
Channel positions : Front: C
Sampling rate : 44.1 KHz
Compression mode : Lossy
Stream size : 468 KiB (9%)
Encoded date : UTC 2014-04-15 16:01:15
Tagged date : UTC 2014-04-15 16:01:15

Screenshots

Android App Development Fundamentals II, Second Edition [repost]

Android App Development Fundamentals II, Second Edition [repost]

Android App Development Fundamentals II, Second Edition [repost]

Exclusive eLearning Videos ParRus-blogadd to bookmarks

Android App Development Fundamentals II, Second Edition [repost]

Android App Development Fundamentals II, Second Edition [repost] Download, Warez, DDL, Free, Torrent, Legal.

Download