André Rieu / Andre Rieu: Wonderful world – Live in Maastricht (2015)

Download
André Rieu / Andre Rieu: Wonderful world - Live in Maastricht (2015)

André Rieu / Andre Rieu: Wonderful world – Live in Maastricht (2015)
BDRip | MKV | AVC 1280×720, ~ 3.2 Mbps | 2hr 27mn | 5.54 GB
English: DTS, 6 ch, 1510 kbps AC3, 6 ch, 640 kbps
Subtitles: Dutch, German, French, Spanish, Portuguese
Genre: Music | Classical | neo-Classical
Andrerieu.com

Stars: Andre Rieux (André Rieu / Andre Rieu), Johann Strauss Orchestra

Live coverage of the Dutch violinist and composer André Rieu’s annual concert in his home town of Maastricht. He is joined on stage by the Johann Strauss Orchestra as well as some famous guest artists and soloists.

BDRip_Info

General
Unique ID : 239253962459076484182191850750267942228 (0xB3FEA316736DF9449C094BE5D734E554)
Complete name : L:AndrR.WonderfulWorld.LvM2astricht.15.7pAndrR.WonderfulWorld.LvM2astricht.15.7p.mkv
Format : Matroska
Format version : Version 4 / Version 2
File size : 5.54 GiB
Duration : 2 h 27 min
Overall bit rate : 5 377 kb/s
Movie name : Release RSU75
Encoded date : UTC 2017-09-27 13:23:27
Writing application : mkvmerge v6.6.0 (‘The Edge Of The In Between’) built on Dec 1 2013 17:55:00
Writing library : libebml v1.3.0 + libmatroska v1.4.1

Video
ID : 1
Format : AVC
Format/Info : Advanced Video Codec
Format profile : High@L3.1
Format settings, CABAC : Yes
Format settings, ReFrames : 4 frames
Codec ID : V_MPEG4/ISO/AVC
Duration : 2 h 27 min
Bit rate : 3 200 kb/s
Width : 1 280 pixels
Height : 720 pixels
Display aspect ratio : 16:9
Frame rate mode : Constant
Frame rate : 25.000 FPS
Color space : YUV
Chroma subsampling : 4:2:0
Bit depth : 8 bits
Scan type : Progressive
Bits/(Pixel*Frame) : 0.139
Stream size : 3.22 GiB (58%)
Writing library : x264 core 144 r2533 c8a773e
Encoding settings : cabac=1 / ref=4 / deblock=1:0:0 / analyse=0x3:0x113 / me=umh / subme=8 / psy=1 / psy_rd=1.00:0.00 / mixed_ref=1 / me_range=24 / chroma_me=1 / trellis=1 / 8x8dct=1 / cqm=0 / deadzone=21,11 / fast_pskip=1 / chroma_qp_offset=-2 / threads=3 / lookahead_threads=1 / sliced_threads=0 / nr=0 / decimate=1 / interlaced=0 / bluray_compat=0 / constrained_intra=0 / bframes=3 / b_pyramid=0 / b_adapt=2 / b_bias=0 / direct=3 / weightb=1 / open_gop=0 / weightp=2 / keyint=250 / keyint_min=25 / scenecut=40 / intra_refresh=0 / rc_lookahead=40 / rc=abr / mbtree=1 / bitrate=3200 / ratetol=1.0 / qcomp=0.60 / qpmin=10 / qpmax=51 / qpstep=4 / ip_ratio=1.41 / aq=1:1.00
Language : English
Default : Yes
Forced : No

Audio #1
ID : 2
Format : DTS
Format/Info : Digital Theater Systems
Mode : 16
Format settings, Endianness : Big
Codec ID : A_DTS
Duration : 2 h 27 min
Bit rate mode : Constant
Bit rate : 1 509 kb/s
Channel(s) : 6 channels
Channel positions : Front: L C R, Side: L R, LFE
Sampling rate : 48.0 kHz
Frame rate : 93.750 FPS (512 spf)
Bit depth : 24 bits
Compression mode : Lossy
Delay relative to video : -40 ms
Stream size : 1.56 GiB (28%)
Title : DTS
Language : English
Default : Yes
Forced : No

Audio #2
ID : 3
Format : AC-3
Format/Info : Audio Coding 3
Mode extension : CM (complete main)
Format settings, Endianness : Big
Codec ID : A_AC3
Duration : 2 h 27 min
Bit rate mode : Constant
Bit rate : 640 kb/s
Channel(s) : 6 channels
Channel positions : Front: L C R, Side: L R, LFE
Sampling rate : 48.0 kHz
Frame rate : 31.250 FPS (1536 spf)
Bit depth : 16 bits
Compression mode : Lossy
Delay relative to video : -5 ms
Stream size : 675 MiB (12%)
Title : AC3
Language : English
Default : No
Forced : No

Text #1
ID : 4
Format : PGS
Muxing mode : zlib
Codec ID : S_HDMV/PGS
Codec ID/Info : Picture based subtitle format used on BDs/HD-DVDs
Language : French
Default : No
Forced : No

Text #2
ID : 5
Format : PGS
Muxing mode : zlib
Codec ID : S_HDMV/PGS
Codec ID/Info : Picture based subtitle format used on BDs/HD-DVDs
Language : Spanish
Default : No
Forced : No

Text #3
ID : 6
Format : PGS
Muxing mode : zlib
Codec ID : S_HDMV/PGS
Codec ID/Info : Picture based subtitle format used on BDs/HD-DVDs
Language : German
Default : No
Forced : No

Text #4
ID : 7
Format : PGS
Muxing mode : zlib
Codec ID : S_HDMV/PGS
Codec ID/Info : Picture based subtitle format used on BDs/HD-DVDs
Language : Portuguese
Default : No
Forced : No

Text #5
ID : 8
Format : PGS
Muxing mode : zlib
Codec ID : S_HDMV/PGS
Codec ID/Info : Picture based subtitle format used on BDs/HD-DVDs
Language : Dutch
Default : No
Forced : No

Menu
00:00:00.000 : en:00:00:00.000
00:04:30.036 : en:00:04:30.036
00:08:54.167 : en:00:08:54.167
00:15:09.509 : en:00:15:09.509
00:20:24.123 : en:00:20:24.123
00:26:13.071 : en:00:26:13.071
00:29:50.756 : en:00:29:50.756
00:37:57.742 : en:00:37:57.742
00:46:15.473 : en:00:46:15.473
00:56:13.770 : en:00:56:13.770
01:03:02.212 : en:01:03:02.212
01:06:54.444 : en:01:06:54.444
01:11:40.363 : en:01:11:40.363
01:17:08.224 : en:01:17:08.224
01:23:09.351 : en:01:23:09.351
01:29:36.771 : en:01:29:36.771
01:31:54.976 : en:01:31:54.976
01:34:03.137 : en:01:34:03.137
01:37:13.261 : en:01:37:13.261
01:47:54.968 : en:01:47:54.968
01:53:51.491 : en:01:53:51.491
01:57:30.110 : en:01:57:30.110
02:01:26.446 : en:02:01:26.446
02:05:41.934 : en:02:05:41.934
02:07:31.844 : en:02:07:31.844
02:11:24.977 : en:02:11:24.977
02:13:19.258 : en:02:13:19.258
02:16:14.933 : en:02:16:14.933
02:20:36.662 : en:02:20:36.662
02:21:00.452 : en:02:21:00.452
02:25:17.509 : en:02:25:17.509

Tracklist:
01. Seventy-Six Trombones
02. Capriccio Italien, Opus 45
03. Nel Blu Dipinto Di Blu (Volare)
04. Amor, Vida De Mi Vida (Zarzuela Rafael Romanza)
05. Au Fond Du Temple Saint (Les Pecheurs de Perles) (The Pearl Fishers’ Duet)
06. Espana Cani (Spanish Gypsy Dance)
07. Viljalied / Vilja Song
08. Sportpalastwalzer (Wiener Praterleben) (The Wiener Praterleben Waltz)
09. Csardasfurstin Medley (The Gypsy Princess) / Im Weissen Robi (The White Horse Inn)
10. Un Bel Di, Vedremo
11. Veronika, der Lenz ist da (Veronica, Spring Is Here)
12. Irgendwo auf der Welt (Somewhere In The World)
13. Das ist die Liebe der Matrosen (The Way With Every Sailor)
14. Wishing You Were Somehow Here Again
15. Einsamer Hirte (The Lonely Shepherd)
16. Ciuleandra
17. Mocirita cu Trifoi
18. Briu Banat
19. An der schonen blauen Donau (The Beautiful Blue Danube)
20. This Land Is Mine (The Exodus Song)
21. Radetzkymarsch (Radetzky March)
22. Strauss & Co.
23. Libiamo
24. Happy Days Are Here Again
25. Mexico
26. Maastricht Hymne (Maastricht Anthem)
27. Maastricht, stadt der frohlicher Sanger (Maastricht, City Of Jolly Singers)
28. What A Wonderful World
29. Nel blu dipinto di blu (Volare)
30. Adieu, mein kleiner Gardeoffizier (Adieu, Little Captain Of My Heart)
31. Marina

Screenshots (click to enlarge to original size):

André Rieu / Andre Rieu: Wonderful world - Live in Maastricht (2015)

André Rieu / Andre Rieu: Wonderful world - Live in Maastricht (2015)

André Rieu / Andre Rieu: Wonderful world - Live in Maastricht (2015)
André Rieu / Andre Rieu: Wonderful world - Live in Maastricht (2015)

–––––––––––––––––––––––––––––––––––––––-
>>> Other "Andre Rieu" <<< OR >>> "Andre Rieu" <<<
–––––––––––––––––––––––––––––––––––––––-
>>> Visit Blog RSU75 Here <<<
–––––––––––––––––––––––––––––––––––––––-

André Rieu / Andre Rieu: Wonderful world – Live in Maastricht (2015) Download, Warez, DDL, Free, Full Album, Torrent, Legal.

Download