Amos Key – First Key (1973) [Reissue 2016]

Download
Amos Key - First Key (1973) [Reissue 2016]

Amos Key – First Key (1973) [Reissue 2016]
EAC Rip | FLAC (tracks+.cue+log) – 233 MB | MP3 CBR 320 kbps (LAME 3.93) – 86 MB | Covers – 128 MB
Genre: Progressive/Krautrock | RAR 3% Rec. | Label: Long Hair (LHC00180)

For the first time as a reissue on CD. The first and eponymous album of classical rock influenced great German krautrockers Amos Key. Amos Key owed great debts to Bach, Beethoven and Schumann, adding a heavy krautrock twist to a music closely resembling the Nice or Egg, full of angst and weird psychedelic and space-rock touches (Freeman Brothers: In A Crack In The Cosmic Egg). Amos Key lived in Munich and consisted of great organ-player Thomas Molin, congenial bass-player Andreas Gross and superb drummer Lutz Ludwig. This fairly competent outfit recorded the album on label ‘Spiegelei’ just after they recorded their radio sessions (Amos Key, Keynotes, The Lost Tapes, SWF Session 1973). Sadly bandleader and organ-player Thomas Molin passed away in the 90ies but bass-player Andreas Gross tells the band story in a very vivid and funny way. Insert contains also a lot of photos. Sound is perfect; remastered from the original tape.

Progarchives

Tracklist:
01. Shoebread
02. Ensterknickstimmstamm
03. Knecht Ruprecht
04. Sometimes…
05. Got The Feelin
06. Escape
07. Important Matter
08. Dragon’s Walk
09. First Key

Total time: 36:42

EAC log
Exact Audio Copy V1.0 beta 3 from 29. August 2011

EAC extraction logfile from 6. February 2017, 14:12

Amos Key / First Key

Used drive : _NEC DVD_RW ND-3540A Adapter: 1 ID: 0

Read mode : Secure
Utilize accurate stream : Yes
Defeat audio cache : Yes
Make use of C2 pointers : No

Read offset correction : 48
Overread into Lead-In and Lead-Out : No
Fill up missing offset samples with silence : Yes
Delete leading and trailing silent blocks : No
Null samples used in CRC calculations : Yes
Used interface : Native Win32 interface for Win NT & 2000
Gap handling : Appended to previous track

Used output format : User Defined Encoder
Selected bitrate : 1024 kBit/s
Quality : High
Add ID3 tag : Yes
Command line compressor : C:Program Files (x86)Exact Audio CopyFLACFLAC.EXE
Additional command line options : -6 -V -T "ARTIST=%artist%" -T "TITLE=%title%" -T "ALBUM=%albumtitle%" -T "DATE=%year%" -T "TRACKNUMBER=%tracknr%" -T "GENRE=%genre%" -T "COMMENT=%comment%" %hascover%–picture="%coverfile%"%hascover% %source% -o %dest%

TOC of the extracted CD

Track | Start | Length | Start sector | End sector
––––––––––––––––––––––––––––-
1 | 0:00.00 | 4:11.64 | 0 | 18888
2 | 4:11.64 | 3:36.34 | 18889 | 35122
3 | 7:48.23 | 4:57.55 | 35123 | 57452
4 | 12:46.03 | 1:58.31 | 57453 | 66333
5 | 14:44.34 | 3:17.33 | 66334 | 81141
6 | 18:01.67 | 4:05.09 | 81142 | 99525
7 | 22:07.01 | 6:03.25 | 99526 | 126775
8 | 28:10.26 | 4:29.46 | 126776 | 146996
9 | 32:39.72 | 4:02.52 | 146997 | 165198

Track 1

Filename F:Musicolaf_alienAmos Key – First Key (1973, Germanofon – 2016, Long Hair)1 – Shoebread.wav

Pre-gap length 0:00:02.00

Peak level 78.9 %
Extraction speed 4.3 X
Track quality 100.0 %
Test CRC 50D2B5A9
Copy CRC 50D2B5A9
Track not present in AccurateRip database
Copy OK

Track 2

Filename F:Musicolaf_alienAmos Key – First Key (1973, Germanofon – 2016, Long Hair)2 – Ensterknickstimmstamm.wav

Pre-gap length 0:00:03.00

Peak level 85.3 %
Extraction speed 1.1 X
Track quality 99.9 %
Test CRC 42CCFBC4
Copy CRC 42CCFBC4
Track not present in AccurateRip database
Copy OK

Track 3

Filename F:Musicolaf_alienAmos Key – First Key (1973, Germanofon – 2016, Long Hair)3 – Knecht Ruprecht.wav

Pre-gap length 0:00:03.00

Peak level 86.4 %
Extraction speed 1.5 X
Track quality 100.0 %
Test CRC FC8E7E43
Copy CRC FC8E7E43
Track not present in AccurateRip database
Copy OK

Track 4

Filename F:Musicolaf_alienAmos Key – First Key (1973, Germanofon – 2016, Long Hair)4 – Sometimes….wav

Peak level 80.7 %
Extraction speed 1.3 X
Track quality 100.0 %
Test CRC 8787B7FA
Copy CRC 8787B7FA
Track not present in AccurateRip database
Copy OK

Track 5

Filename F:Musicolaf_alienAmos Key – First Key (1973, Germanofon – 2016, Long Hair)5 – Got The Feelin.wav

Peak level 81.8 %
Extraction speed 1.5 X
Track quality 100.0 %
Test CRC 98674B17
Copy CRC 98674B17
Track not present in AccurateRip database
Copy OK

Track 6

Filename F:Musicolaf_alienAmos Key – First Key (1973, Germanofon – 2016, Long Hair)6 – Escape.wav

Pre-gap length 0:00:03.00

Peak level 84.2 %
Extraction speed 1.7 X
Track quality 100.0 %
Test CRC B810DCE5
Copy CRC B810DCE5
Track not present in AccurateRip database
Copy OK

Track 7

Filename F:Musicolaf_alienAmos Key – First Key (1973, Germanofon – 2016, Long Hair)7 – Important Matter.wav

Pre-gap length 0:00:03.00

Peak level 84.0 %
Extraction speed 1.9 X
Track quality 100.0 %
Test CRC 99E986EB
Copy CRC 99E986EB
Track not present in AccurateRip database
Copy OK

Track 8

Filename F:Musicolaf_alienAmos Key – First Key (1973, Germanofon – 2016, Long Hair)8 – Dragon’s Walk.wav

Pre-gap length 0:00:03.00

Peak level 84.6 %
Extraction speed 1.9 X
Track quality 100.0 %
Test CRC 69872CFB
Copy CRC 69872CFB
Track not present in AccurateRip database
Copy OK

Track 9

Filename F:Musicolaf_alienAmos Key – First Key (1973, Germanofon – 2016, Long Hair)9 – First Key.wav

Pre-gap length 0:00:03.00

Peak level 83.9 %
Extraction speed 3.5 X
Track quality 99.9 %
Test CRC FB0C2E36
Copy CRC FB0C2E36
Track not present in AccurateRip database
Copy OK

None of the tracks are present in the AccurateRip database

No errors occurred

End of status report

==== Log checksum 2E8B3C4475E2CB8D48AD53D5ED76E87A6C15A700F9D9D1FCD2690E3F2948C187 ====

CUETools log
[CUETools log; Date: 07.02.2017 0:21:10; Version: 2.1.4]
[CTDB TOCID: eI3s5rMwV.d2YlWMfuWHqoWiSbU-] disk not present in database.
[AccurateRip ID: 000c2aff-0059ae57-80089a09] disk not present in database.

Track Peak [ CRC32 ] [W/O NULL] [ LOG ]
– 86,4 [3F20C6B4] [C6A58872]
01 78,9 [50D2B5A9] [1C50004E] CRC32
02 85,3 [42CCFBC4] [2D92D1A2] CRC32
03 86,4 [FC8E7E43] [2A5FE81E] CRC32
04 80,7 [8787B7FA] [776E7774] CRC32
05 81,8 [98674B17] [C4AC8FFC] CRC32
06 84,2 [B810DCE5] [DB1F9004] CRC32
07 84,0 [99E986EB] [F581DF89] CRC32
08 84,6 [69872CFB] [627CB038] CRC32
09 83,9 [FB0C2E36] [94EBF1CE] CRC32

Thanks to olaf_alien

See also:
Amos Key – Keynotes [Recorded 1973] (2010)

Welcome to My Blog!

Amos Key – First Key (1973) [Reissue 2016] Download, Warez, DDL, Free, Full Album, Torrent, Legal.

Download