Amorphis – Chapters (2003)

Download
Amorphis - Chapters (2003)

Amorphis – Chapters (2003)
EAC | Flac(Image) + Cue + Log & MP3 CBR 320Kbps
Relapse Records, RR 6576-2 | ~ 582 or 182 Mb | Scans(jpg) -> 35 Mb
Progressive Metal, Heavy Metal, Death Metal

The Amorphis best-of collection named Chapters replaces the now withdrawn greatest-hits set of a few years earlier called Story: 10th Anniversary. Making only rudimentary changes to an already excellent and representative track listing, this welcome upgrade also adds a bonus DVD containing some of the band’s music videos. The acknowledged elder statesmen of Finland’s heavy metal scene, Amorphis’ admirable career trajectory has seen them expand their creative horizons from day one, as they quickly abandoned the basest death metal primitivism of their youth to reinterpret Finnish folk music and poetry though ever-greater melodic and dynamic enhancements, before eventually arriving at an indefinable hybrid of new age and heavy metal/hard rock that is truly all their own. Along the way, the group has arguably lost as many fans as it has gained, but such is the price of maturity, and Chapters’ reverse chronological track order only serves to highlight the absolute necessity of this evolution. Furthermore, with so much ground having already been covered over the group’s ten-plus year odyssey, Chapters offers old fans a handy recap, and new fans a perfect venue to sample all the compartments of Amorphis’ career before choosing one to delve into further.

by Eduardo Rivadavia, allmusic

Amorphis – Chapters (2003):

Amorphis - Chapters (2003)

Tracklist:

01. Alone (4:23)
02. Drifting Memories (4:25)
03. Too Much To See (3:41)
04. The Way (4:36)
05. Northern Lights (3:18)
06. Summer’s End (5:37)
07. The Brother-Slayer (3:38)
08. Better Unborn (5:52)
09. My Kantele (5:04)
10. Weeper On The Shore (4:53)
11. Moon And Sun (3:37)
12. Black Winter Day (3:51)
13. The Castaway (5:33)
14. Drowned Maid (4:24)
15. Warriors Trial (5:05)
16. The Exhile Of The Sons Of Uisliu (3:44)
17. The Lost Name Of God (5:32)

EAC Log
Exact Audio Copy V1.1 from 23. June 2015

EAC extraction logfile from 3. October 2015, 13:30

Amorphis / Chapters

Used drive : HP DVD Writer 1170d Adapter: 1 ID: 1

Read mode : Secure
Utilize accurate stream : Yes
Defeat audio cache : Yes
Make use of C2 pointers : No

Read offset correction : 6
Overread into Lead-In and Lead-Out : No
Fill up missing offset samples with silence : Yes
Delete leading and trailing silent blocks : No
Null samples used in CRC calculations : Yes
Used interface : Native Win32 interface for Win NT & 2000

Used output format : User Defined Encoder
Selected bitrate : 768 kBit/s
Quality : High
Add ID3 tag : No
Command line compressor : C:Program Files (x86)Exact Audio CopyFLACFLAC.EXE
Additional command line options : -V -8 -T "Date=%year%" -T "Genre=%genre%" -T"COMMENT=Ripped by Ungern666" -8 -V %source%

TOC of the extracted CD

Track | Start | Length | Start sector | End sector
––––––––––––––––––––––––––––-
1 | 0:00.00 | 4:23.27 | 0 | 19751
2 | 4:23.27 | 4:24.64 | 19752 | 39615
3 | 8:48.16 | 3:41.36 | 39616 | 56226
4 | 12:29.52 | 4:35.44 | 56227 | 76895
5 | 17:05.21 | 3:17.46 | 76896 | 91716
6 | 20:22.67 | 5:37.16 | 91717 | 117007
7 | 26:00.08 | 3:37.38 | 117008 | 133320
8 | 29:37.46 | 5:52.24 | 133321 | 159744
9 | 35:29.70 | 5:03.67 | 159745 | 182536
10 | 40:33.62 | 4:52.65 | 182537 | 204501
11 | 45:26.52 | 3:36.49 | 204502 | 220750
12 | 49:03.26 | 3:50.71 | 220751 | 238071
13 | 52:54.22 | 5:32.66 | 238072 | 263037
14 | 58:27.13 | 4:23.47 | 263038 | 282809
15 | 62:50.60 | 5:04.57 | 282810 | 305666
16 | 67:55.42 | 3:43.71 | 305667 | 322462
17 | 71:39.38 | 5:32.06 | 322463 | 347368

Range status and errors

Selected range

Filename C:EACUngern666Amorphis – Chapters.wav

Peak level 100.0 %
Extraction speed 5.1 X
Range quality 100.0 %
Test CRC 40232072
Copy CRC 40232072
Copy OK

No errors occurred

AccurateRip summary

Track 1 accurately ripped (confidence 10) [5323C155] (AR v2)
Track 2 accurately ripped (confidence 10) [A2416276] (AR v2)
Track 3 accurately ripped (confidence 10) [EE1674FB] (AR v2)
Track 4 accurately ripped (confidence 10) [E846E240] (AR v2)
Track 5 accurately ripped (confidence 10) [6D9A95A6] (AR v2)
Track 6 accurately ripped (confidence 10) [577F9FA3] (AR v2)
Track 7 accurately ripped (confidence 10) [CC1D603E] (AR v2)
Track 8 accurately ripped (confidence 10) [BD39A64F] (AR v2)
Track 9 accurately ripped (confidence 10) [DBE892CA] (AR v2)
Track 10 accurately ripped (confidence 10) [1AA03D96] (AR v2)
Track 11 accurately ripped (confidence 10) [90DB572A] (AR v2)
Track 12 accurately ripped (confidence 10) [7CFFC7B9] (AR v2)
Track 13 accurately ripped (confidence 10) [A0C1CBC4] (AR v2)
Track 14 accurately ripped (confidence 10) [50A23866] (AR v2)
Track 15 accurately ripped (confidence 10) [1B069261] (AR v2)
Track 16 accurately ripped (confidence 10) [4599B82B] (AR v2)
Track 17 accurately ripped (confidence 10) [9DD9D7ED] (AR v2)

All tracks accurately ripped

End of status report

–– CUETools DB Plugin V2.1.6

[CTDB TOCID: a55fRsDVK1czYGTsyLJCfWCSh8E-] found
Submit result: a55fRsDVK1czYGTsyLJCfWCSh8E- has been confirmed
Track | CTDB Status
1 | (14/14) Accurately ripped
2 | (14/14) Accurately ripped
3 | (14/14) Accurately ripped
4 | (14/14) Accurately ripped
5 | (14/14) Accurately ripped
6 | (14/14) Accurately ripped
7 | (14/14) Accurately ripped
8 | (14/14) Accurately ripped
9 | (14/14) Accurately ripped
10 | (13/14) Accurately ripped
11 | (14/14) Accurately ripped
12 | (14/14) Accurately ripped
13 | (14/14) Accurately ripped
14 | (14/14) Accurately ripped
15 | (13/14) Accurately ripped
16 | (14/14) Accurately ripped
17 | (13/14) Accurately ripped

==== Log checksum 6AC8B9E9D86571B18CB469875534CB51484697367D1987B29F496B0E6396ACF6 ====

CUETools Log
[CUETools log; Date: 12.08.2017 18:25:42; Version: 2.1.4]
[AccurateRip ID: 002eb6f3-02533f1f-e8121711] found.
Track [ CRC | V2 ] Status
01 [24916dd5|5323c155] (10+13/23) Accurately ripped
02 [fb7e2f81|a2416276] (10+13/23) Accurately ripped
03 [0f6a3666|ee1674fb] (10+14/24) Accurately ripped
04 [5a43d328|e846e240] (10+13/23) Accurately ripped
05 [e4297d50|6d9a95a6] (10+14/24) Accurately ripped
06 [cbff661f|577f9fa3] (10+13/23) Accurately ripped
07 [4cda020d|cc1d603e] (10+13/23) Accurately ripped
08 [5babf388|bd39a64f] (10+13/23) Accurately ripped
09 [f36780b1|dbe892ca] (10+13/23) Accurately ripped
10 [579fce4a|1aa03d96] (10+13/23) Accurately ripped
11 [d9d7762e|90db572a] (10+13/23) Accurately ripped
12 [ca300d63|7cffc7b9] (10+13/23) Accurately ripped
13 [bb842e74|a0c1cbc4] (10+13/23) Accurately ripped
14 [c8a3ad9f|50a23866] (10+13/23) Accurately ripped
15 [c97c16ba|1b069261] (10+13/23) Accurately ripped
16 [222a1354|4599b82b] (09+13/22) Accurately ripped
17 [bc33b418|9dd9d7ed] (09+13/22) Accurately ripped

Track Peak [ CRC32 ] [W/O NULL] [ LOG ]
– 100,0 [40232072] [CAFEA3B2] CRC32
01 100,0 [E56A09CF] [6A3A2514]
02 100,0 [2885C3AE] [0A03348D]
03 100,0 [1AB01FD3] [9B235DB9]
04 100,0 [1F4B9B09] [A58BCADF]
05 99,3 [B21B17BD] [4E613DCB]
06 100,0 [53E648B6] [26D03E6C]
07 100,0 [7DD4FE01] [5803A3C4]
08 100,0 [BA8AC481] [62E658C8]
09 100,0 [F043E76B] [51144527]
10 100,0 [F622A53D] [D6238B0A]
11 100,0 [56023211] [40B0FFD4]
12 100,0 [BED68A6D] [81F1216E]
13 100,0 [6D8F915D] [1DFC9923]
14 100,0 [CE3FA609] [486EA248]
15 100,0 [F7CF9412] [5AAA23BC]
16 100,0 [09C661C3] [DD746942]
17 100,0 [DA65F198] [0BF423BD]

Amorphis - Chapters (2003)

All thanks go to the original releaser

Amorphis in my Blog

Download Amorphis – Chapters (2003):

Amorphis – Chapters (2003) Download, Warez, DDL, Free, Full Album, Torrent, Legal.

Download