Alvin Lee – Saguitar (2007)

Download
Alvin Lee - Saguitar (2007)

Alvin Lee – Saguitar (2007)
EAC | Flac(Image) + Cue + Log & MP3 CBR 320Kbps
Repertoire Records, RAR 1004 | ~ 347 or 128 Mb | Scans(jpg) -> 52 Mb
Hard Rock / Classic Rock / Blues Rock / Rock & Roll

This rather awkwardly titled album (Alvin Lee’s horoscope sign is Sagittarius) is a true solo project from the ex-Ten Years After frontman. He plays virtually all the instruments except keyboards, overdubbing himself in his home studio to impressive effect. Musically, he’s not blazing any new territory at this point in his career, content with sticking to the Chuck Berry styled rocking blues boogies and the country twang he has dabbled in for 40 years. Lee’s not a great drummer, and the lack of a rhythm section (other than his own overdubbing) results in a somewhat stiff, homogenous feel that might have been avoided if he had just hired a few pros to play these parts. Still, Lee’s voice hasn’t changed an iota since his heyday, and songs such as "The Squeeze" adequately replicate "I’d Love to Change the World"-styled hits without being carbon copies. "Smoking Rope" digs into the stop-start "I’m a Man" blues riff with surprisingly electrified results, helped enormously by Tim Hinkley’s keyboards and an acoustic based sound that clicks without the drums that often hinder this album’s material. Perhaps he could have left the self-explanatory "Rapper" on the cutting room floor, even though the psychedelic guitar solo that snakes through the track helps overcome Lee’s very white and cardboard-sounding rapping. He’s far more convincing on blues based originals such as "Blues Has Got a Hold on Me," a mellow yet convincing groove perfect for Lee’s voice and approach. His vocals have always been Elvis-influenced so when he goes full on Presley for the rockabilly "Memphis" (not the Chuck Berry tune), the effect is impressive and unpretentious. Lee lays off most of the lightning licks of his youth, instead adding tight, taut fills that bring substance without flash to an eclectic and consistently enjoyable set. Ultimately, this is a solid Alvin Lee album that fans will enjoy but that is unlikely to attract many newcomers to his rather predictable if undeniably personal and energetic style.

by Hal Horowitz, allmusic

Alvin Lee – Saguitar (2007):

Alvin Lee - Saguitar (2007)

Tracklist:

01. Anytime U Want Me [04:52]
02. The Squeeze [04:08]
03. It’s Time To Play [04:24]
04. Midnite Train [02:20]
05. Motel Blues [05:21]
06. Only Here For The Ride [02:48]
07. Memphis [02:03]
08. Got A Lot Of Living To Do [03:07]
09. Blues Has Got A Hold On Me [03:26]
10. It’s All Good [04:21]
11. Education [04:31]
12. Rapper [03:29]
13. Smoking Rope [04:40]
14. Rocking Rendezvous [04:40]

EAC Log
Exact Audio Copy V0.99 prebeta 5 from 4. May 2009

EAC extraction logfile from 19. October 2013, 0:34

ALVIN LEE / Saguitar ( RAR 1004 )

Used drive : ASUS DRW-24B3ST Adapter: 5 ID: 0

Read mode : Secure
Utilize accurate stream : Yes
Defeat audio cache : Yes
Make use of C2 pointers : No

Read offset correction : 6
Overread into Lead-In and Lead-Out : No
Fill up missing offset samples with silence : Yes
Delete leading and trailing silent blocks : No
Null samples used in CRC calculations : Yes
Used interface : Native Win32 interface for Win NT & 2000

Used output format : User Defined Encoder
Selected bitrate : 1024 kBit/s
Quality : High
Add ID3 tag : No
Command line compressor : C:Program Files (x86)EACWVwavpack.exe
Additional command line options : -h -hh -m %s %d

TOC of the extracted CD

Track | Start | Length | Start sector | End sector
––––––––––––––––––––––––––––-
1 | 0:00.00 | 4:52.34 | 0 | 21933
2 | 4:52.34 | 4:08.35 | 21934 | 40568
3 | 9:00.69 | 4:24.37 | 40569 | 60405
4 | 13:25.31 | 2:20.04 | 60406 | 70909
5 | 15:45.35 | 5:21.56 | 70910 | 95040
6 | 21:07.16 | 2:48.32 | 95041 | 107672
7 | 23:55.48 | 2:03.19 | 107673 | 116916
8 | 25:58.67 | 3:07.17 | 116917 | 130958
9 | 29:06.09 | 3:26.09 | 130959 | 146417
10 | 32:32.18 | 4:21.34 | 146418 | 166026
11 | 36:53.52 | 4:31.09 | 166027 | 186360
12 | 41:24.61 | 3:29.72 | 186361 | 202107
13 | 44:54.58 | 4:40.71 | 202108 | 223178
14 | 49:35.54 | 4:40.53 | 223179 | 244231

Range status and errors

Selected range

Filename G:TEN YEARS AFTER2007- ALVIN LEE & Co.- Saguitar (DE 2007 Repertoire Records • RAR 1004)ALVIN LEE – Saguitar ( RAR 1004 ).wav

Peak level 99.9 %
Range quality 100.0 %
Test CRC 9581D53C
Copy CRC 9581D53C
Copy OK

No errors occurred

AccurateRip summary

Track 1 accurately ripped (confidence 6) [E7694743]
Track 2 accurately ripped (confidence 6) [23BECE24]
Track 3 accurately ripped (confidence 6) [A13958F9]
Track 4 accurately ripped (confidence 6) [FF31FF6B]
Track 5 accurately ripped (confidence 6) [8D8778A5]
Track 6 accurately ripped (confidence 6) [ACC65DD1]
Track 7 accurately ripped (confidence 6) [3CFD2109]
Track 8 accurately ripped (confidence 6) [4D502C66]
Track 9 accurately ripped (confidence 6) [7E8B33DF]
Track 10 accurately ripped (confidence 6) [EFFA04F7]
Track 11 accurately ripped (confidence 6) [CDF6BE6E]
Track 12 accurately ripped (confidence 6) [EBD6CE19]
Track 13 accurately ripped (confidence 6) [AC354CB1]
Track 14 accurately ripped (confidence 6) [CF4154F0]

All tracks accurately ripped

End of status report

DR Log
foobar2000 1.2.9 / Dynamic Range Meter 1.1.1
log date: 2017-02-04 01:16:29

––––––––––––––––––––––––––––––––––––––––
Analyzed: ALVIN LEE / Saguitar ( RAR 1004 )
––––––––––––––––––––––––––––––––––––––––

DR Peak RMS Duration Track
––––––––––––––––––––––––––––––––––––––––
DR8 -0.01 dB -9.11 dB 4:52 01-Anytime U Want Me
DR8 -0.04 dB -9.86 dB 4:08 02-The Squeeze
DR7 -0.01 dB -8.43 dB 4:24 03-It’s Time To Play
DR7 -0.01 dB -9.24 dB 2:20 04-Midnite Train
DR7 -0.01 dB -8.78 dB 5:22 05-Motel Blues
DR7 -0.01 dB -8.10 dB 2:48 06-Only Here For The Ride
DR7 -0.01 dB -7.68 dB 2:03 07-Memphis
DR7 -0.01 dB -8.08 dB 3:07 08-Got A Lot Of Living To Do
DR7 -0.03 dB -8.94 dB 3:26 09-Blues Has Got A Hold On Me
DR7 -0.01 dB -7.83 dB 4:21 10-It’s All Good
DR7 -0.01 dB -8.04 dB 4:31 11-Education
DR7 -0.01 dB -8.48 dB 3:30 12-Rapper
DR9 -0.60 dB -10.68 dB 4:41 13-Smoking Rope
DR7 -0.01 dB -7.66 dB 4:41 14-Rocking Rendezvous
––––––––––––––––––––––––––––––––––––––––

Number of tracks: 14
Official DR value: DR7

Samplerate: 44100 Hz
Channels: 2
Bits per sample: 16
Bitrate: 868 kbps
Codec: FLAC

CUETools Log
[CUETools log; Date: 04.02.2017 1:16:16; Version: 2.1.4]
[CTDB TOCID: wX3f84UT0CvlQAtobW8b1XhrzQA-] found.
Track | CTDB Status
1 | (18/18) Accurately ripped
2 | (18/18) Accurately ripped
3 | (18/18) Accurately ripped
4 | (18/18) Accurately ripped
5 | (18/18) Accurately ripped
6 | (18/18) Accurately ripped
7 | (18/18) Accurately ripped
8 | (18/18) Accurately ripped
9 | (18/18) Accurately ripped
10 | (18/18) Accurately ripped
11 | (18/18) Accurately ripped
12 | (18/18) Accurately ripped
13 | (18/18) Accurately ripped
14 | (18/18) Accurately ripped
[AccurateRip ID: 001ba8fe-012414f1-e10cb80e] found.
Track [ CRC | V2 ] Status
01 [e7694743|44780045] (06+12/32) Accurately ripped
02 [23bece24|f0280bbd] (06+12/32) Accurately ripped
03 [a13958f9|614ab29d] (06+12/32) Accurately ripped
04 [ff31ff6b|b5af2175] (06+12/32) Accurately ripped
05 [8d8778a5|47d2affd] (06+12/32) Accurately ripped
06 [acc65dd1|8ec3dc8b] (06+12/32) Accurately ripped
07 [3cfd2109|2da91d7d] (06+12/32) Accurately ripped
08 [4d502c66|d2d6cc5d] (06+12/32) Accurately ripped
09 [7e8b33df|61f642f5] (06+12/32) Accurately ripped
10 [effa04f7|a95a863a] (06+12/32) Accurately ripped
11 [cdf6be6e|c0d6b43f] (06+12/32) Accurately ripped
12 [ebd6ce19|ba24b113] (06+12/32) Accurately ripped
13 [ac354cb1|618a9dc7] (06+12/32) Accurately ripped
14 [cf4154f0|4ef246e3] (06+12/32) Accurately ripped
Offsetted by -664:
01 [ee8276fb] (04/32) Accurately ripped
02 [dbccdb8a] (04/32) Accurately ripped
03 [c00cea58] (04/32) Accurately ripped
04 [8d6fd546] (04/32) Accurately ripped
05 [752daaa4] (04/32) Accurately ripped
06 [4a663647] (04/32) Accurately ripped
07 [dddfba17] (04/32) Accurately ripped
08 [be1d7073] (04/32) Accurately ripped
09 [ebfe0b37] (04/32) Accurately ripped
10 [0b825d37] (04/32) Accurately ripped
11 [e988ae95] (04/32) Accurately ripped
12 [8f3a47e2] (04/32) Accurately ripped
13 [8b3cae51] (04/32) Accurately ripped
14 [c7626980] (04/32) Accurately ripped
Offsetted by -635:
01 [c55938d3] (04/32) Accurately ripped
02 [40a0863e] (04/32) Accurately ripped
03 [8909f067] (04/32) Accurately ripped
04 [34291132] (04/32) Accurately ripped
05 [a6b2e3ac] (04/32) Accurately ripped
06 [51018483] (04/32) Accurately ripped
07 [eb769e27] (04/32) Accurately ripped
08 [867c5446] (04/32) Accurately ripped
09 [95dce232] (04/32) Accurately ripped
10 [bba7f9bf] (04/32) Accurately ripped
11 [4f1d4197] (04/32) Accurately ripped
12 [13f28cae] (04/32) Accurately ripped
13 [66822445] (04/32) Accurately ripped
14 [1a9ea772] (04/32) Accurately ripped
Offsetted by -1281:
01 [641b84d1] (00/32) No match (V2 was not tested)
02 [955e85b4] (00/32) No match (V2 was not tested)
03 [2f13dab2] (00/32) No match (V2 was not tested)
04 [4a746b0d] (00/32) No match (V2 was not tested)
05 [975a7ae2] (00/32) No match (V2 was not tested)
06 [67dd21ba] (00/32) No match (V2 was not tested)
07 [ddf7c2a5] (00/32) No match (V2 was not tested)
08 [86393af9] (00/32) No match (V2 was not tested)
09 [2620a8e8] (00/32) No match (V2 was not tested)
10 [70a8c4cf] (00/32) No match (V2 was not tested)
11 [3df551bd] (00/32) No match (V2 was not tested)
12 [1ac8ce94] (00/32) No match (V2 was not tested)
13 [b327652d] (00/32) No match (V2 was not tested)
14 [c1ff9bd6] (00/32) No match (V2 was not tested)

Track Peak [ CRC32 ] [W/O NULL] [ LOG ]
– 99,9 [9581D53C] [C04E3BF8] CRC32
01 99,8 [622A11CF] [332D9FA4]
02 99,5 [E807C750] [C055EDAE]
03 99,8 [440097CF] [76D7E778]
04 99,8 [77295FAD] [967CE1D9]
05 99,8 [47C6D9D6] [61C0120B]
06 99,8 [3B04C1F7] [344ABE35]
07 99,8 [5399DA5D] [5AE0664B]
08 99,8 [EAB101E9] [1863CCF9]
09 99,6 [7E88CBB3] [9F920D3D]
10 99,8 [65D469A2] [749E40A8]
11 99,9 [C5054463] [6EE8E309]
12 99,8 [90A61EE6] [2BBA55DF]
13 93,3 [96D9EE9A] [0DB949B2]
14 99,8 [422CAD27] [97E4660F]

Alvin Lee - Saguitar (2007)

All thanks go to the original releaser

Alvin Lee in my Blog

Download Alvin Lee – Saguitar (2007):

Alvin Lee – Saguitar (2007) Download, Warez, DDL, Free, Full Album, Torrent, Legal.

Download