Alvin Lee – Live In Vienna (1994)

Download
Alvin Lee - Live In Vienna (1994)

Alvin Lee – Live In Vienna (1994)
EAC | Flac(Image) + Cue + Log & MP3 CBR 320Kbps
1996 | Viceroy Music, VIC 8030-2 | ~ 476 or 169 Mb | Scans(png) -> 58 Mb
Hard Rock / Classic Rock / Blues Rock / Rock & Roll

Another solid live album by Mr. Lee. He was in his environment on stage and he was a great rock and roll guitar player…

rod45, rateyourmusic.com

Alvin Lee – Live In Vienna (1994):

Alvin Lee - Live In Vienna (1994)

Tracklist:

01. Keep On Rockin’ [04:15]
02. Long Legs [08:18]
03. I Hear You Knockin’ [03:37]
04. Hear Me Calling [05:29]
05. Love Like a Man [05:33]
06. Jonny B Goode [02:00]
07. I Don’t Give a Damn [05:32]
08. Good Morning Little Schoolgirl [07:42]
09. Skooboly Oobly Doobob [01:12]
10. Help Me Baby [09:49]
11. Classical Thing [00:56]
12. Going Home [13:25]
13. Rip It Up [03:44]

EAC Log
Exact Audio Copy V0.99 prebeta 5 from 4. May 2009

EAC extraction logfile from 19. October 2013, 15:03

ALVIN LEE / Live In Vienna ( VIC 8030-2 )

Used drive : ASUS DRW-24B3ST Adapter: 4 ID: 0

Read mode : Secure
Utilize accurate stream : Yes
Defeat audio cache : Yes
Make use of C2 pointers : No

Read offset correction : 6
Overread into Lead-In and Lead-Out : No
Fill up missing offset samples with silence : Yes
Delete leading and trailing silent blocks : No
Null samples used in CRC calculations : Yes
Used interface : Native Win32 interface for Win NT & 2000

Used output format : User Defined Encoder
Selected bitrate : 1024 kBit/s
Quality : High
Add ID3 tag : No
Command line compressor : C:Program Files (x86)EACWVwavpack.exe
Additional command line options : -h -hh -m %s %d

TOC of the extracted CD

Track | Start | Length | Start sector | End sector
––––––––––––––––––––––––––––-
1 | 0:00.00 | 4:15.25 | 0 | 19149
2 | 4:15.25 | 8:18.62 | 19150 | 56561
3 | 12:34.12 | 3:37.35 | 56562 | 72871
4 | 16:11.47 | 5:29.48 | 72872 | 97594
5 | 21:41.20 | 5:33.00 | 97595 | 122569
6 | 27:14.20 | 2:00.60 | 122570 | 131629
7 | 29:15.05 | 5:32.00 | 131630 | 156529
8 | 34:47.05 | 7:42.00 | 156530 | 191179
9 | 42:29.05 | 1:12.50 | 191180 | 196629
10 | 43:41.55 | 9:49.67 | 196630 | 240871
11 | 53:31.47 | 0:56.50 | 240872 | 245121
12 | 54:28.22 | 13:25.73 | 245122 | 305569
13 | 67:54.20 | 3:44.55 | 305570 | 322424

Range status and errors

Selected range

Filename G:TEN YEARS AFTER1996- ALVIN LEE & Co.- Live in Vienna (US 1996 Viceroy Music • VIC 8030-2)ALVIN LEE – Live In Vienna ( VIC 8030-2 ).wav

Peak level 99.9 %
Range quality 100.0 %
Test CRC C812EDFC
Copy CRC C812EDFC
Copy OK

No errors occurred

AccurateRip summary

Track 1 accurately ripped (confidence 4) [0FA05D69]
Track 2 accurately ripped (confidence 4) [106F5F39]
Track 3 accurately ripped (confidence 4) [11A06CF6]
Track 4 accurately ripped (confidence 4) [CA0C7CD7]
Track 5 accurately ripped (confidence 4) [199CC577]
Track 6 accurately ripped (confidence 4) [C0D65060]
Track 7 accurately ripped (confidence 4) [4D7A0574]
Track 8 accurately ripped (confidence 4) [6C3DC93E]
Track 9 accurately ripped (confidence 4) [C635F051]
Track 10 accurately ripped (confidence 4) [EC45F9C7]
Track 11 accurately ripped (confidence 4) [3F94B52D]
Track 12 accurately ripped (confidence 4) [23997135]
Track 13 accurately ripped (confidence 4) [A44CBCBF]

All tracks accurately ripped

End of status report

DR Log
foobar2000 1.2.9 / Dynamic Range Meter 1.1.1
log date: 2017-02-10 05:57:31

––––––––––––––––––––––––––––––––––––––––
Analyzed: ALVIN LEE / Live In Vienna ( VIC 8030-2 )
––––––––––––––––––––––––––––––––––––––––

DR Peak RMS Duration Track
––––––––––––––––––––––––––––––––––––––––
DR11 -0.07 dB -12.50 dB 4:15 01-Keep On Rockin’
DR12 0.00 dB -14.13 dB 8:19 02-Long Legs
DR12 -0.07 dB -13.52 dB 3:37 03-I Hear You Knockin’
DR13 -0.07 dB -14.24 dB 5:30 04-Hear Me Calling
DR12 -0.07 dB -13.80 dB 5:33 05-Love Like a Man
DR12 -0.07 dB -15.57 dB 2:01 06-Jonny B Goode
DR12 -0.07 dB -13.47 dB 5:32 07-I Don’t Give a Damn
DR12 -0.07 dB -14.44 dB 7:42 08-Good Morning Little Schoolgirl
DR13 -6.86 dB -22.84 dB 1:13 09-Skooboly Oobly Doobob
DR13 -0.07 dB -16.44 dB 9:50 10-Help Me Baby
DR14 -5.56 dB -24.86 dB 0:57 11-Classical Thing
DR11 -0.07 dB -14.16 dB 13:26 12-Going Home
DR11 -0.07 dB -13.10 dB 3:45 13-Rip It Up
––––––––––––––––––––––––––––––––––––––––

Number of tracks: 13
Official DR value: DR12

Samplerate: 44100 Hz
Channels: 2
Bits per sample: 16
Bitrate: 903 kbps
Codec: FLAC

CUETools Log
[CUETools log; Date: 10.02.2017 5:57:19; Version: 2.1.4]
[CTDB TOCID: O7gZJVK1jFxqSDZmdC_Wzn2NUhw-] found.
Track | CTDB Status
1 | (16/16) Accurately ripped
2 | (16/16) Accurately ripped
3 | (16/16) Accurately ripped
4 | (16/16) Accurately ripped
5 | (16/16) Accurately ripped
6 | (15/16) Accurately ripped
7 | (16/16) Accurately ripped
8 | (16/16) Accurately ripped
9 | (16/16) Accurately ripped
10 | (16/16) Accurately ripped
11 | (16/16) Accurately ripped
12 | (14/16) Accurately ripped
13 | (15/16) Accurately ripped
[AccurateRip ID: 0020f074-014a84b8-b310cb0d] found.
Track [ CRC | V2 ] Status
01 [0fa05d69|a9574f30] (4+0/6) Accurately ripped
02 [106f5f39|9f9652d4] (4+0/6) Accurately ripped
03 [11a06cf6|842b7f96] (4+0/6) Accurately ripped
04 [ca0c7cd7|28ee4391] (4+0/6) Accurately ripped
05 [199cc577|80ab6b85] (4+0/6) Accurately ripped
06 [c0d65060|e7ee68d2] (4+0/6) Accurately ripped
07 [4d7a0574|8c1b43dc] (4+0/6) Accurately ripped
08 [6c3dc93e|483278b7] (4+0/6) Accurately ripped
09 [c635f051|f33dcde4] (4+0/6) Accurately ripped
10 [ec45f9c7|b46fb831] (4+0/6) Accurately ripped
11 [3f94b52d|4da9fe34] (4+0/6) Accurately ripped
12 [23997135|b78e118e] (4+0/6) Accurately ripped
13 [a44cbcbf|87a5e1e4] (4+0/6) Accurately ripped
Offsetted by 270:
01 [9fd0ead9] (2/6) Accurately ripped
02 [5abdc815] (2/6) Accurately ripped
03 [83cda1ce] (2/6) Accurately ripped
04 [f609a965] (2/6) Accurately ripped
05 [93180673] (2/6) Accurately ripped
06 [3d61d520] (2/6) Accurately ripped
07 [1cc7e462] (2/6) Accurately ripped
08 [707d1c84] (2/6) Accurately ripped
09 [27f90ca7] (2/6) Accurately ripped
10 [b90588cd] (2/6) Accurately ripped
11 [25915f0f] (2/6) Accurately ripped
12 [4aef3fd3] (2/6) Accurately ripped
13 [06de120f] (2/6) Accurately ripped
Offsetted by -100:
01 [3909a449] (0/6) No match (V2 was not tested)
02 [40c41bf1] (0/6) No match (V2 was not tested)
03 [0d43d4a6] (0/6) No match (V2 was not tested)
04 [ccb83373] (0/6) No match (V2 was not tested)
05 [38789a6f] (0/6) No match (V2 was not tested)
06 [5056c9e0] (0/6) No match (V2 was not tested)
07 [5607d8d0] (0/6) No match (V2 was not tested)
08 [ad09e34a] (0/6) No match (V2 was not tested)
09 [cfe212f1] (0/6) No match (V2 was not tested)
10 [714ecd3f] (0/6) No match (V2 was not tested)
11 [06b82ef0] (0/6) No match (V2 was not tested)
12 [eb6b0a82] (0/6) No match (V2 was not tested)
13 [f1922b5f] (0/6) No match (V2 was not tested)

Track Peak [ CRC32 ] [W/O NULL] [ LOG ]
– 99,9 [C812EDFC] [0C8EB60F] CRC32
01 99,2 [9028D2B5] [1D5D3A1A]
02 99,9 [E6443F5D] [73C381FA]
03 99,2 [3C7410A5] [A501AE38]
04 99,2 [95CE16F2] [0681D913]
05 99,2 [30F43412] [E6D9AF24]
06 99,2 [72208DCF] [92DEFEE2]
07 99,2 [B1B90B81] [DB3F0D9B]
08 99,2 [F38AB6E3] [6622E9EC]
09 45,3 [98AC19DF] [BA1EADB3]
10 99,2 [1A635EA3] [2EF2D02C]
11 52,7 [0AD4382D] [324E9382]
12 99,2 [B895C4E8] [6A761DD5]
13 99,2 [4D351888] [DA5A5FF3]

Alvin Lee - Live In Vienna (1994)

All thanks go to the original releaser

Alvin Lee in my Blog

Download Alvin Lee – Live In Vienna (1994):

Alvin Lee – Live In Vienna (1994) Download, Warez, DDL, Free, Full Album, Torrent, Legal.

Download