Alpha Blondy – The Best of Alpha Blondy (1995) | ViralVideoPk

Daily Dose of Free Downloads

Alpha Blondy – The Best of Alpha Blondy (1995)

Download

Alpha Blondy - The Best of Alpha Blondy (1995)

Alpha Blondy – The Best of Alpha Blondy (1995)
EAC Rip | FLAC (Image) +CUE, LOG | 449 MB | Covers Included
Genre: Reggae | Label: Blue Note Records | Catalog Number: 7243 837041 2

Hailing from the Cote d’Ivoire, Alpha Blondy is among the world’s most popular reggae artists. With his 12-piece band Solar System, Blondy offers a reggae beat with a distinctive African cast. Calling himself an African Rasta, Blondy creates Jah-centered anthems promoting morality, love, peace, and social consciousness. With a range that moves from sensitivity to rage over injustice, much of Blondy’s music empathizes with the impoverished and those on society’s fringe. Blondy is also a staunch supporter of African unity, and to this end, he sings to Moslem audiences in Hebrew and sings in Arabic to Israelis. Some of his best-known songs include "Cocody Rock," "Jerusalem," and "Apartheid Is Nazism."

EAC Log
Exact Audio Copy V0.99 prebeta 4 from 23. January 2008

Îò÷¸ò EAC îá èçâëå÷åíèè, âûïîëíåííîì 27. ñåíòÿáðÿ 2009, 5:18

Alpha Blondy / The Best of Alpha Blondy

Äèñêîâîä: PIONEER DVD-RW DVR-212 Adapter: 7 ID: 0

Ðåæèì ÷òåíèÿ : Äîñòîâåðíîñòü
Èñïîëüçîâàíèå òî÷íîãî ïîòîêà : Äà
Îòêëþ÷åíèå êýøà àóäèî : Äà
Èñïîëüçîâàíèå óêàçàòåëåé C2 : Íåò

Êîððåêöèÿ ñìåùåíèÿ ïðè ÷òåíèè : 48
Ñïîñîáíîñòü ÷èòàòü îáëàñòè Lead-in è Lead-out : Íåò
Çàïîëíåíèå ïðîïóùåííûõ ñýìïëîâ òèøèíîé : Äà
Óäàëåíèå áëîêîâ ñ òèøèíîé â íà÷àëå è êîíöå : Íåò
Ïðè âû÷èñëåíèÿõ CRC èñïîëüçîâàëèñü íóëåâûå ñýìïëû : Äà
Èíòåðôåéñ : Óñòàíîâëåííûé âíåøíèé ASPI-èíòåðôåéñ

Âûõîäíîé ôîðìàò : Âíóòðåííèå WAV-îïåðàöèè
Ôîðìàò ñýìïëîâ : 44.100 Ãö; 16 áèò; ñòåðåî

TOC èçâëå÷¸ííîãî CD

Òðåê | Ñòàðò | Äëèòåëüíîñòü | Íà÷àëüíûé ñåêòîð | Êîíå÷íûé ñåêòîð
––––––––––––––––––––––––––––––––––-
1 | 0:00.00 | 4:55.12 | 0 | 22136
2 | 4:55.12 | 4:47.63 | 22137 | 43724
3 | 9:43.00 | 5:31.70 | 43725 | 68619
4 | 15:14.70 | 7:50.27 | 68620 | 103896
5 | 23:05.22 | 6:37.58 | 103897 | 133729
6 | 29:43.05 | 5:15.25 | 133730 | 157379
7 | 34:58.30 | 3:50.25 | 157380 | 174654
8 | 38:48.55 | 3:51.20 | 174655 | 191999
9 | 42:40.00 | 4:54.12 | 192000 | 214061
10 | 47:34.12 | 3:26.68 | 214062 | 229579
11 | 51:01.05 | 4:23.65 | 229580 | 249369
12 | 55:24.70 | 3:48.10 | 249370 | 266479
13 | 59:13.05 | 4:41.57 | 266480 | 287611
14 | 63:54.62 | 3:29.30 | 287612 | 303316

Õàðàêòåðèñòèêè äèàïàçîíà èçâëå÷åíèÿ è ñîîáùåíèÿ îá îøèáêàõ

Âûáðàííûé äèàïàçîí

Èìÿ ôàéëà B:MP 3ReggaeAlpha Blondy (FLAC)The Best Of Alpha Blondy (FLAC)Alpha Blondy – The Best of Alpha Blondy.wav

Ïèêîâûé óðîâåíü 99.4 %
Êà÷åñòâî äèàïàçîíà 99.9 %
CRC êîïèè 1BBAD438
Êîïèðîâàíèå… OK

Îøèáîê íå ïðîèçîøëî

AccurateRip: ñâîäêà

Òðåê 1 òî÷íîå èçâëå÷åíèå (äîâåðèå 3) [CDDED12A]
Òðåê 2 òî÷íîå èçâëå÷åíèå (äîâåðèå 3) [E9BC0B25]
Òðåê 3 òî÷íîå èçâëå÷åíèå (äîâåðèå 3) [26EB0A87]
Òðåê 4 òî÷íîå èçâëå÷åíèå (äîâåðèå 3) [F15C2FAF]
Òðåê 5 òî÷íîå èçâëå÷åíèå (äîâåðèå 3) [FC5AC2A5]
Òðåê 6 òî÷íîå èçâëå÷åíèå (äîâåðèå 3) [7709CB8D]
Òðåê 7 òî÷íîå èçâëå÷åíèå (äîâåðèå 3) [63D55C8E]
Òðåê 8 òî÷íîå èçâëå÷åíèå (äîâåðèå 3) [F297A00F]
Òðåê 9 òî÷íîå èçâëå÷åíèå (äîâåðèå 3) [DE8AFC2F]
Òðåê 10 òî÷íîå èçâëå÷åíèå (äîâåðèå 3) [103502C2]
Òðåê 11 òî÷íîå èçâëå÷åíèå (äîâåðèå 3) [5505852F]
Òðåê 12 òî÷íîå èçâëå÷åíèå (äîâåðèå 3) [D89FCF86]
Òðåê 13 òî÷íîå èçâëå÷åíèå (äîâåðèå 3) [9FB1BEC3]
Òðåê 14 òî÷íîå èçâëå÷åíèå (äîâåðèå 3) [A54FB714]

Âñå òðåêè èçâëå÷åíû òî÷íî

Êîíåö îò÷¸òà

Tracklist:
01. Cocody rock (4:55)
02. Apartheid is nazism (4:48)
03. Come back Jesus (5:32)
04. Jerusalem (7:50)
05. Politiqui (6:38)
06. Sweet fanta diallo (5:15)
07. Banana (3:50)
08. Cafe cacao (3:51)
09. Masada (4:54)
10. Rendez-vous (3:27)
11. Yeye (4:24)
12. Fulgence kassy (3:48)
13. Amour papier longueur (4:42)
14. Rendez-vous (cool summer mix) (3:29)

Alpha Blondy – The Best of Alpha Blondy (1995) Download, Warez, DDL, Free, Full Album, Torrent, Legal.

Download


  • Recent Posts

  • Recent Tags