All Them Witches – Sleeping Through the War (2017) {New West}

Download
All Them Witches - Sleeping Through the War (2017) {New West}

All Them Witches – Sleeping Through the War (2017)
EAC Rip | FLAC (tracks+.cue, log) | Front cover only | 300 mb | MP3 CBR 320kbps | RAR | 109 mb
Rock, Psychedelic, Stoner Rock | Label: New West Records – NW 6371

The Nashville-based psych-rock quartet All Them Witches are set to return with Sleeping Through The War via New West Records on February 24th, 2017.

The 8-song, 46 minute set was produced by the Grammy Awarding winning producer Dave Cobb (Chris Stapleton, Sturgill Simpson, Jason Isbell) and follows the band’s acclaimed Dying Surfer Meets His Maker released last year. The fundamental laws that govern Sleeping Through The War are the same that have made All Them Witches a cult favorite – big fuzz, deep grooves, cosmic vision – but years of jamming their way across the country and three European tours in 2016 alone have made their songcraft more dynamic, more responsive, and years of psychic interactions between band members has lead them into a headier sonic space.

Tracklist:

01. Bulls
02. Don’t Bring Me Coffee
03. Bruce Lee
04. 3-5-7
05. Am I Going Up?
06. Alabaster
07. Cowboy Kirk
08. Internet

All Them Witches are: Charles Michael Parks, Jr. (vocals/bass), Ben McLeod (guitar), Allan Van Cleave (keys), Robby Staebler (drums).

EAC log
Exact Audio Copy V1.3 from 2. September 2016

EAC extraction logfile from 13. February 2017, 23:01

All Them Witches / Sleeping Through the War

Used drive : HP DVD Writer 1270t Adapter: 1 ID: 0

Read mode : Secure
Utilize accurate stream : Yes
Defeat audio cache : Yes
Make use of C2 pointers : No

Read offset correction : 6
Overread into Lead-In and Lead-Out : No
Fill up missing offset samples with silence : Yes
Delete leading and trailing silent blocks : No
Null samples used in CRC calculations : Yes
Used interface : Native Win32 interface for Win NT & 2000
Gap handling : Appended to previous track

Used output format : User Defined Encoder
Selected bitrate : 1024 kBit/s
Quality : High
Add ID3 tag : No
Command line compressor : C:Program FilesFLACflac.exe
Additional command line options : -8 -V -T "Artist=%artist%" -T "Title=%title%" -T "Album=%albumtitle%" -T "Date=%year%" -T "TRACKNUMBER=%tracknr%" -T "Genre=%genre%" -T "Performer=%albuminterpret%" -T "Composer=%composer%" %haslyrics%–tag-from-file=LYRICS="%lyricsfile%"%haslyrics% -T "Album Artist=%albumartist%" -T "DISCNUMBER=%cdnumber%" -T "TOTALDISCS=%totalcds%" -T "TOTALTRACKS=%numtracks%" -T "Comment=%comment%" %source% -o %dest%

TOC of the extracted CD

Track | Start | Length | Start sector | End sector
––––––––––––––––––––––––––––-
1 | 0:00.00 | 6:40.64 | 0 | 30063
2 | 6:40.64 | 3:10.25 | 30064 | 44338
3 | 9:51.14 | 3:11.33 | 44339 | 58696
4 | 13:02.47 | 3:56.52 | 58697 | 76448
5 | 16:59.24 | 5:33.70 | 76449 | 101493
6 | 22:33.19 | 6:57.40 | 101494 | 132808
7 | 29:30.59 | 6:50.38 | 132809 | 163596
8 | 36:21.22 | 9:50.15 | 163597 | 207861

Track 1

Filename F:MusicAll Them Witches – Sleeping Through the War (2017) [FLAC]1 Bulls.wav

Pre-gap length 0:00:02.00

Peak level 98.5 %
Extraction speed 2.0 X
Track quality 100.0 %
Test CRC 3EF426D5
Copy CRC 3EF426D5
Track not present in AccurateRip database
Copy OK

Track 2

Filename F:MusicAll Them Witches – Sleeping Through the War (2017) [FLAC]2 Don’t Bring Me Coffee.wav

Peak level 99.3 %
Extraction speed 2.0 X
Track quality 100.0 %
Test CRC 5CC59EDC
Copy CRC 5CC59EDC
Track not present in AccurateRip database
Copy OK

Track 3

Filename F:MusicAll Them Witches – Sleeping Through the War (2017) [FLAC]3 Bruce Lee.wav

Peak level 98.8 %
Extraction speed 2.2 X
Track quality 100.0 %
Test CRC 42CE2201
Copy CRC 42CE2201
Track not present in AccurateRip database
Copy OK

Track 4

Filename F:MusicAll Them Witches – Sleeping Through the War (2017) [FLAC]4 3-5-7.wav

Peak level 99.0 %
Extraction speed 1.7 X
Track quality 99.9 %
Test CRC F5413604
Copy CRC F5413604
Track not present in AccurateRip database
Copy OK

Track 5

Filename F:MusicAll Them Witches – Sleeping Through the War (2017) [FLAC]5 Am I Going Up.wav

Peak level 98.6 %
Extraction speed 2.7 X
Track quality 100.0 %
Test CRC 7D8FCB27
Copy CRC 7D8FCB27
Track not present in AccurateRip database
Copy OK

Track 6

Filename F:MusicAll Them Witches – Sleeping Through the War (2017) [FLAC]6 Alabaster.wav

Peak level 100.0 %
Extraction speed 3.0 X
Track quality 100.0 %
Test CRC 4BEE1FE0
Copy CRC 4BEE1FE0
Track not present in AccurateRip database
Copy OK

Track 7

Filename F:MusicAll Them Witches – Sleeping Through the War (2017) [FLAC]7 Cowboy Kirk.wav

Peak level 99.9 %
Extraction speed 3.2 X
Track quality 100.0 %
Test CRC DD1727AF
Copy CRC DD1727AF
Track not present in AccurateRip database
Copy OK

Track 8

Filename F:MusicAll Them Witches – Sleeping Through the War (2017) [FLAC]8 Internet.wav

Peak level 100.0 %
Extraction speed 3.6 X
Track quality 100.0 %
Test CRC 5D3A7D15
Copy CRC 5D3A7D15
Track not present in AccurateRip database
Copy OK

None of the tracks are present in the AccurateRip database

No errors occurred

End of status report

–– CUETools DB Plugin V2.1.6

[CTDB TOCID: PiKaO_6EvD5qqs4F_fyEBGdYSY8-] found
Submit result: PiKaO_6EvD5qqs4F_fyEBGdYSY8- has been confirmed
Track | CTDB Status
1 | (1/1) Accurately ripped
2 | (1/1) Accurately ripped
3 | (1/1) Accurately ripped
4 | (1/1) Accurately ripped
5 | (1/1) Accurately ripped
6 | (1/1) Accurately ripped
7 | (1/1) Accurately ripped
8 | (1/1) Accurately ripped

==== Log checksum 74D01CA112AD5AC4B5E1B9487D30E5E18704AD16857D99CE07DFD2C6B0D33070 ====

Thanks to the Original customer.

All Them Witches – Sleeping Through the War (2017) {New West} Download, Warez, DDL, Free, Full Album, Torrent, Legal.

Download