Ali Farka Toure – Niafunke (1999) {Hannibal Records HNCD 1443}

Download
Ali Farka Toure - Niafunke (1999) {Hannibal Records HNCD 1443}

Ali Farka Toure – Niafunké (1999) {Hannibal Records HNCD 1443}
EAC rip (secure mode) | FLAC (tracks)+CUE+LOG -> 290 Mb | MP3 @320 -> 122 Mb
Full Artwork @ 600 dpi (jpg) -> 25 Mb | 5% repair rar
© 1999 Hannibal Records / World Circuit / Rykodisc | HNCD 1443
World / African Folk / African Traditions / Afro-Pop / West African / Worldbeat

Malian guitarist Ali Farka Toure’s music has always managed global travel with ease and musical grace, shrinking the miles between Western Africa and the Mississippi Delta and seemingly visiting every city in between. Toure has received his share of accolades for blurring the lines between his contemporary/traditional fingerpicking style and "country blues." Toure has routinely collaborated with musicians from other cultures and musical genres, most notably the prolific and internationally influenced Ry Cooder on their widely acclaimed 1994 album Talking Timbuktu.

He establishes a firm aesthetic residence on Niafunké, his first and most welcome CD in five years. Niafunké was recorded using a state-of-the-art portable studio in Toure’s home village of Niafunke, which clearly lends a decisive authentic flavor and sense of musical place to the disc. Each tune is a lithe and resonant labyrinth of call-and-response patterns: a fingerpicked guitar speaks to a one-stringed njarka fiddle, calabash pummelings weave into those of the conga drums, and a lively small chorus answers Toure’s authoritative lead vocals. A couple of the best cuts include "Ali’s Here" and "Saukare." A beautifully rendered and intoxicating record.

Ali Farka Toure - Niafunke (1999) {Hannibal Records HNCD 1443}

tracklist:
01 – Ali’s Here
02 – Allah Uya
03 – Mali Dje
04 – Saukare
05 – Hilly Yoro
06 – Tulumba
07 – Instrumental
08 – ASCO
09 – Jangali Famata
10 – Howkouna
11 – Cousins
12 – Pieter Botha

EAC log
EAC extraction logfile from 22. March 2006, 8:33 for CD
Ali Farka Toure / Niafunke

Used drive : HL-DT-STDVDRAM GSA-4163B Adapter: 3 ID: 0
Read mode : Secure with NO C2, accurate stream, disable cache
Read offset correction : 667
Overread into Lead-In and Lead-Out : No

Used output format : C:Arquivos de programasFLACflac.exe (User Defined Encoder)
320 kBit/s
Additional command line options : -5 -V -T "ARTIST=%a" -T "TITLE=%t" -T "ALBUM=%g" -T "DATE=%y" -T "TRACKNUMBER=%n" -T "GENRE=%m" -T "COMMENT=EAC Flac 1.1.2 -5" %s

Other options :
Fill up missing offset samples with silence : Yes
Delete leading and trailing silent blocks : No
Native Win32 interface for Win NT & 2000

Track 1
Filename E:Ali Farka Toure – Niafunke (1999) [FLAC]1 – Ali’s Here.wav

Pre-gap length 0:00:02.00

Peak level 100.0 %
Track quality 99.9 %
Test CRC 40FD6DDE
Copy CRC 40FD6DDE
Copy OK

Track 2
Filename E:Ali Farka Toure – Niafunke (1999) [FLAC]2 – Allah Uya.wav

Pre-gap length 0:00:03.80

Peak level 100.0 %
Track quality 99.9 %
Test CRC B1ED3A8C
Copy CRC B1ED3A8C
Copy OK

Track 3
Filename E:Ali Farka Toure – Niafunke (1999) [FLAC]3 – Mali Dje.wav

Pre-gap length 0:00:03.49

Peak level 100.0 %
Track quality 99.9 %
Test CRC CBEE8AA4
Copy CRC CBEE8AA4
Copy OK

Track 4
Filename E:Ali Farka Toure – Niafunke (1999) [FLAC]4 – Saukare.wav

Pre-gap length 0:00:03.93

Peak level 92.0 %
Track quality 100.0 %
Test CRC 3ECCE9A8
Copy CRC 3ECCE9A8
Copy OK

Track 5
Filename E:Ali Farka Toure – Niafunke (1999) [FLAC]5 – Hilly Yoro.wav

Pre-gap length 0:00:04.00

Peak level 100.0 %
Track quality 99.9 %
Test CRC E40284E8
Copy CRC E40284E8
Copy OK

Track 6
Filename E:Ali Farka Toure – Niafunke (1999) [FLAC]6 – Tulumba.wav

Pre-gap length 0:00:03.09

Peak level 100.0 %
Track quality 100.0 %
Test CRC EC0970FC
Copy CRC EC0970FC
Copy OK

Track 7
Filename E:Ali Farka Toure – Niafunke (1999) [FLAC]7 – Instrumental.wav

Pre-gap length 0:00:02.80

Peak level 76.9 %
Track quality 100.0 %
Test CRC BA2D4CED
Copy CRC BA2D4CED
Copy OK

Track 8
Filename E:Ali Farka Toure – Niafunke (1999) [FLAC]8 – ASCO.wav

Pre-gap length 0:00:03.24

Peak level 100.0 %
Track quality 99.9 %
Test CRC DCC1DF25
Copy CRC DCC1DF25
Copy OK

Track 9
Filename E:Ali Farka Toure – Niafunke (1999) [FLAC]9 – Jangali Famata.wav

Pre-gap length 0:00:03.82

Peak level 100.0 %
Track quality 100.0 %
Test CRC 36FA9A9D
Copy CRC 36FA9A9D
Copy OK

Track 10
Filename E:Ali Farka Toure – Niafunke (1999) [FLAC]10 – Howkouna.wav

Pre-gap length 0:00:03.20

Peak level 100.0 %
Track quality 100.0 %
Test CRC 82C87AD1
Copy CRC 82C87AD1
Copy OK

Track 11
Filename E:Ali Farka Toure – Niafunke (1999) [FLAC]11 – Cousins.wav

Pre-gap length 0:00:03.13

Peak level 79.4 %
Track quality 100.0 %
Test CRC 366D3F53
Copy CRC 366D3F53
Copy OK

Track 12
Filename E:Ali Farka Toure – Niafunke (1999) [FLAC]12 – Pieter Botha.wav

Pre-gap length 0:00:04.02

Peak level 100.0 %
Track quality 99.9 %
Test CRC CE0CF103
Copy CRC CE0CF103
Copy OK

No errors occured

End of status report

Ali Farka Toure - Niafunke (1999) {Hannibal Records HNCD 1443}

Ali Farka Toure - Niafunke (1999) {Hannibal Records HNCD 1443}

All thanks goes to the original releaser!

===

Ali Farka Toure – Niafunke (1999) {Hannibal Records HNCD 1443} Download, Warez, DDL, Free, Full Album, Torrent, Legal.

Download