Alexander Arutiunian – Complete Piano Works (Hayk Melikyan) [2017]

Download
Alexander  Arutiunian - Complete Piano Works (Hayk Melikyan) [2017]

Alexander Arutiunian – Complete Piano Works (Hayk Melikyan) [2017]
EAC Rip | FLAC, TRACKs+CUE, LOG | Covers | 1cd, 206.87 MB
Classical | Label: Grand Piano | Catalog Number: GP718

Alexander Arutiunian was one of the most prominent composers in the USSR, one of the representatives of the Armenian ‘Mighty Handful’ and much admired by Shostakovich. An accomplished pianist, Arutiunian created virtuoso piano works that are rooted in Armenian folk traditions while expressing, in the words of Hayk Melikyan, “a rich palette of emotions reflecting both his time and the history of his nation”. From the Armenian Dance of 1935, with its delicate, transparent texture and strong rhythmic drive, via the more dissonant, neo-classical Polyphonic Sonata, the descriptive Musical Pictures, and the almost Debussyan approach to tonality in the Six Moods, to the simple and beautifully crafted Album for Children of 2004, the works on this recording, the first complete edition, span Arutunian’s entire compositional career.

Performer:
Hayk Melikyan – Piano

Tracklisting:
01. Armenian Dance (02:17)
02. Pastoral (01:59)
03. Theme and Variations (05:50)
Preludes.
04. No. 1. Andante (01:33)
05. No. 2. Moderato assai (01:51)
06. No. 3. Maestoso. Allegro (01:24)
07. Prelude – Poem (04:47)
Polyphonic Sonata.
08. I. Invention (01:55)
09. II. Chorale (06:21)
10. III. Fugue (04:12)
11. Humoresque (00:44)
Musical Pictures.
12. No. 1. The Wind Blew in the Mountains (02:03)
13. No. 2. Ararat Valley Evening (03:25)
14. No. 3. Sassoun Dance (02:27)
Piano Sonatina.
15. I. Moderato (01:14)
16. II. Adagio (02:20)
17. III. Allegro moderato (01:18)
Moods.
18. No. 1. Adagio (01:17)
19. No. 2. Allegro agitato (01:24)
20. No. 3. Moderato (01:59)
21. No. 4. Adagio (01:44)
22. No. 5. Moderato (02:35)
23. No. 6. Allegro energico (01:47)
Album for Children.
24. I. A Joke (00:23)
25. II. Autumn Waltz (01:35)
26. III. Cheerful Promenade (00:33)
27. IV. A Sad Song (00:49)
28. V. Lyrical Waltz (01:13)
29. VI. Naughty Girl (00:31)
30. VII. A Story (01:35)
31. VIII. Spring Mood (00:37)

LOG
Exact Audio Copy V1.0 beta 3 from 29. August 2011

EAC extraction logfile from 7. February 2017, 20:41

Hayk Melikyan / Al. Arutiunian. Complete Piano Works

Used drive : PIONEER DVD-RW DVR-221L Adapter: 2 ID: 0

Read mode : Secure
Utilize accurate stream : Yes
Defeat audio cache : Yes
Make use of C2 pointers : No

Read offset correction : 6
Overread into Lead-In and Lead-Out : No
Fill up missing offset samples with silence : Yes
Delete leading and trailing silent blocks : No
Null samples used in CRC calculations : Yes
Used interface : Installed external ASPI interface
Gap handling : Appended to previous track

Used output format : User Defined Encoder
Selected bitrate : 768 kBit/s
Quality : High
Add ID3 tag : No
Command line compressor : C:Program FilesExact Audio CopyFlacflac.exe
Additional command line options : -6 -V -T "ARTIST=%artist%" -T "TITLE=%title%" -T "ALBUM=%albumtitle%" -T "DATE=%year%" -T "TRACKNUMBER=%tracknr%" -T "GENRE=%genre%" -T "COMMENT=%comment%" -T "ALBUMARTIST=%albuminterpret%" -T "COMPOSER=%composer%" -T "DISCNUMBER=%cdnumber%" -T "TOTALDISCS=%totalcds%" -T "TOTALTRACKS=%numtracks%" %source% -o %dest%

TOC of the extracted CD

Track | Start | Length | Start sector | End sector
––––––––––––––––––––––––––––-
1 | 0:00.00 | 2:16.74 | 0 | 10273
2 | 2:16.74 | 1:58.64 | 10274 | 19187
3 | 4:15.63 | 5:49.61 | 19188 | 45423
4 | 10:05.49 | 1:33.26 | 45424 | 52424
5 | 11:39.00 | 1:50.49 | 52425 | 60723
6 | 13:29.49 | 1:23.60 | 60724 | 67008
7 | 14:53.34 | 4:47.37 | 67009 | 88570
8 | 19:40.71 | 1:55.22 | 88571 | 97217
9 | 21:36.18 | 6:21.11 | 97218 | 125803
10 | 27:57.29 | 4:12.12 | 125804 | 144715
11 | 32:09.41 | 0:43.60 | 144716 | 148000
12 | 32:53.26 | 2:03.06 | 148001 | 157231
13 | 34:56.32 | 3:24.60 | 157232 | 172591
14 | 38:21.17 | 2:27.02 | 172592 | 183618
15 | 40:48.19 | 1:13.44 | 183619 | 189137
16 | 42:01.63 | 2:19.68 | 189138 | 199630
17 | 44:21.56 | 1:18.04 | 199631 | 205484
18 | 45:39.60 | 1:16.42 | 205485 | 211226
19 | 46:56.27 | 1:24.28 | 211227 | 217554
20 | 48:20.55 | 1:58.65 | 217555 | 226469
21 | 50:19.45 | 1:43.61 | 226470 | 234255
22 | 52:03.31 | 2:34.58 | 234256 | 245863
23 | 54:38.14 | 1:46.51 | 245864 | 253864
24 | 56:24.65 | 0:23.16 | 253865 | 255605
25 | 56:48.06 | 1:35.31 | 255606 | 262761
26 | 58:23.37 | 0:32.67 | 262762 | 265228
27 | 58:56.29 | 0:48.71 | 265229 | 268899
28 | 59:45.25 | 1:13.25 | 268900 | 274399
29 | 60:58.50 | 0:31.11 | 274400 | 276735
30 | 61:29.61 | 1:35.17 | 276736 | 283877
31 | 63:05.03 | 0:36.72 | 283878 | 286649

Track 1

Filename D:EAC1 – Armenian Dance.wav

Pre-gap length 0:00:02.00

Peak level 95.0 %
Extraction speed 2.5 X
Track quality 100.0 %
Test CRC 1E9A95D1
Copy CRC 1E9A95D1
Track not present in AccurateRip database
Copy OK

Track 2

Filename D:EAC2 – Pastoral.wav

Pre-gap length 0:00:03.37

Peak level 78.0 %
Extraction speed 1.7 X
Track quality 99.9 %
Test CRC 1FFA0E84
Copy CRC 1FFA0E84
Track not present in AccurateRip database
Copy OK

Track 3

Filename D:EAC3 – Theme and Variations.wav

Pre-gap length 0:00:03.10

Peak level 95.4 %
Extraction speed 3.4 X
Track quality 100.0 %
Test CRC 39AD0FA8
Copy CRC 39AD0FA8
Track not present in AccurateRip database
Copy OK

Track 4

Filename D:EAC4 – Preludes. No. 1. Andante.wav

Pre-gap length 0:00:04.36

Peak level 95.8 %
Extraction speed 2.8 X
Track quality 100.0 %
Test CRC 51977D6E
Copy CRC 51977D6E
Track not present in AccurateRip database
Copy OK

Track 5

Filename D:EAC5 – No. 2. Moderato assai.wav

Pre-gap length 0:00:01.29

Peak level 93.7 %
Extraction speed 3.1 X
Track quality 100.0 %
Test CRC 4E6F8F1C
Copy CRC 4E6F8F1C
Track not present in AccurateRip database
Copy OK

Track 6

Filename D:EAC6 – No. 3. Maestoso. Allegro.wav

Pre-gap length 0:00:01.66

Peak level 96.5 %
Extraction speed 2.9 X
Track quality 100.0 %
Test CRC 5C526C1E
Copy CRC 5C526C1E
Track not present in AccurateRip database
Copy OK

Track 7

Filename D:EAC7 – Prelude – Poem.wav

Pre-gap length 0:00:03.38

Peak level 98.7 %
Extraction speed 3.1 X
Track quality 99.9 %
Test CRC 5805BCDD
Copy CRC 5805BCDD
Track not present in AccurateRip database
Copy OK

Track 8

Filename D:EAC8 – Polyphonic Sonata. I. Invention.wav

Pre-gap length 0:00:08.48

Peak level 96.7 %
Extraction speed 3.5 X
Track quality 100.0 %
Test CRC 2855ADB6
Copy CRC 2855ADB6
Track not present in AccurateRip database
Copy OK

Track 9

Filename D:EAC9 – II. Chorale.wav

Pre-gap length 0:00:00.49

Peak level 99.7 %
Extraction speed 3.8 X
Track quality 99.9 %
Test CRC 7E867B34
Copy CRC 7E867B34
Track not present in AccurateRip database
Copy OK

Track 10

Filename D:EAC10 – III. Fugue.wav

Pre-gap length 0:00:01.38

Peak level 100.0 %
Extraction speed 4.6 X
Track quality 100.0 %
Test CRC 2EE16EB8
Copy CRC 2EE16EB8
Track not present in AccurateRip database
Copy OK

Track 11

Filename D:EAC11 – Humoresque.wav

Pre-gap length 0:00:02.62

Peak level 96.6 %
Extraction speed 1.4 X
Track quality 99.7 %
Test CRC 6FAA54C6
Copy CRC 6FAA54C6
Track not present in AccurateRip database
Copy OK

Track 12

Filename D:EAC12 – Musical Pictures. No. 1. The Wind Blew in the Mountains.wav

Pre-gap length 0:00:04.17

Peak level 96.7 %
Extraction speed 4.1 X
Track quality 100.0 %
Test CRC 4737DF92
Copy CRC 4737DF92
Track not present in AccurateRip database
Copy OK

Track 13

Filename D:EAC13 – No. 2. Ararat Valley Evening.wav

Pre-gap length 0:00:00.44

Peak level 66.7 %
Extraction speed 4.7 X
Track quality 100.0 %
Test CRC 8A642F0F
Copy CRC 8A642F0F
Track not present in AccurateRip database
Copy OK

Track 14

Filename D:EAC14 – No. 3. Sassoun Dance.wav

Pre-gap length 0:00:00.51

Peak level 100.0 %
Extraction speed 2.7 X
Track quality 99.9 %
Test CRC 2F80AAEE
Copy CRC 2F80AAEE
Track not present in AccurateRip database
Copy OK

Track 15

Filename D:EAC15 – Piano Sonatina. I. Moderato.wav

Pre-gap length 0:00:00.13

Peak level 39.5 %
Extraction speed 3.7 X
Track quality 100.0 %
Test CRC 9D83E7B4
Copy CRC 9D83E7B4
Track not present in AccurateRip database
Copy OK

Track 16

Filename D:EAC16 – II. Adagio.wav

Pre-gap length 0:00:00.36

Peak level 51.4 %
Extraction speed 4.7 X
Track quality 100.0 %
Test CRC A58B936F
Copy CRC A58B936F
Track not present in AccurateRip database
Copy OK

Track 17

Filename D:EAC17 – III. Allegro moderato.wav

Peak level 68.0 %
Extraction speed 4.0 X
Track quality 100.0 %
Test CRC 5A62286E
Copy CRC 5A62286E
Track not present in AccurateRip database
Copy OK

Track 18

Filename D:EAC18 – Moods. No. 1. Adagio.wav

Pre-gap length 0:00:02.35

Peak level 62.1 %
Extraction speed 4.0 X
Track quality 100.0 %
Test CRC 0DEB2D9B
Copy CRC 0DEB2D9B
Track not present in AccurateRip database
Copy OK

Track 19

Filename D:EAC19 – No. 2. Allegro agitato.wav

Peak level 69.8 %
Extraction speed 4.3 X
Track quality 100.0 %
Test CRC A9133FEB
Copy CRC A9133FEB
Track not present in AccurateRip database
Copy OK

Track 20

Filename D:EAC20 – No. 3. Moderato.wav

Pre-gap length 0:00:00.73

Peak level 52.3 %
Extraction speed 3.0 X
Track quality 99.9 %
Test CRC C857E962
Copy CRC C857E962
Track not present in AccurateRip database
Copy OK

Track 21

Filename D:EAC21 – No. 4. Adagio.wav

Pre-gap length 0:00:00.72

Peak level 40.8 %
Extraction speed 3.7 X
Track quality 100.0 %
Test CRC 459F48F1
Copy CRC 459F48F1
Track not present in AccurateRip database
Copy OK

Track 22

Filename D:EAC22 – No. 5. Moderato.wav

Pre-gap length 0:00:00.28

Peak level 94.6 %
Extraction speed 5.2 X
Track quality 100.0 %
Test CRC 6C613816
Copy CRC 6C613816
Track not present in AccurateRip database
Copy OK

Track 23

Filename D:EAC23 – No. 6. Allegro energico.wav

Pre-gap length 0:00:00.02

Peak level 98.9 %
Extraction speed 4.7 X
Track quality 100.0 %
Test CRC BF94183C
Copy CRC BF94183C
Track not present in AccurateRip database
Copy OK

Track 24

Filename D:EAC24 – Album for Children. I. A Joke.wav

Pre-gap length 0:00:04.74

Peak level 64.0 %
Extraction speed 1.0 X
Track quality 99.5 %
Test CRC 6AB4C01D
Copy CRC 6AB4C01D
Track not present in AccurateRip database
Copy OK

Track 25

Filename D:EAC25 – II. Autumn Waltz.wav

Pre-gap length 0:00:00.38

Peak level 39.6 %
Extraction speed 4.7 X
Track quality 100.0 %
Test CRC B065F4EA
Copy CRC B065F4EA
Track not present in AccurateRip database
Copy OK

Track 26

Filename D:EAC26 – III. Cheerful Promenade.wav

Pre-gap length 0:00:01.37

Peak level 65.6 %
Extraction speed 1.3 X
Track quality 99.6 %
Test CRC 22AEDF21
Copy CRC 22AEDF21
Track not present in AccurateRip database
Copy OK

Track 27

Filename D:EAC27 – IV. A Sad Song.wav

Pre-gap length 0:00:01.23

Peak level 30.7 %
Extraction speed 3.7 X
Track quality 100.0 %
Test CRC 74969420
Copy CRC 74969420
Track not present in AccurateRip database
Copy OK

Track 28

Filename D:EAC28 – V. Lyrical Waltz.wav

Pre-gap length 0:00:01.16

Peak level 41.7 %
Extraction speed 4.3 X
Track quality 100.0 %
Test CRC 6C1C5F62
Copy CRC 6C1C5F62
Track not present in AccurateRip database
Copy OK

Track 29

Filename D:EAC29 – VI. Naughty Girl.wav

Pre-gap length 0:00:01.74

Peak level 51.0 %
Extraction speed 2.9 X
Track quality 100.0 %
Test CRC 92280703
Copy CRC 92280703
Track not present in AccurateRip database
Copy OK

Track 30

Filename D:EAC30 – VII. A Story.wav

Pre-gap length 0:00:02.06

Peak level 43.8 %
Extraction speed 4.7 X
Track quality 100.0 %
Test CRC 575DE1AB
Copy CRC 575DE1AB
Track not present in AccurateRip database
Copy OK

Track 31

Filename D:EAC31 – VIII. Spring Mood.wav

Pre-gap length 0:00:00.56

Peak level 91.0 %
Extraction speed 3.3 X
Track quality 100.0 %
Test CRC CA0B358D
Copy CRC CA0B358D
Track not present in AccurateRip database
Copy OK

None of the tracks are present in the AccurateRip database

No errors occurred

End of status report

==== Log checksum 09C92821F53BAA3E29AA7113598C34B67A2960E659A0577F04FAB3B2323AE3A8 ====

Alexander Arutiunian – Complete Piano Works (Hayk Melikyan) [2017] Download, Warez, DDL, Free, Full Album, Torrent, Legal.

Download