Alessandro Fadini – A Dark and Stormy Day (2016) | ViralVideoPk

Daily Dose of Free Downloads

Alessandro Fadini – A Dark and Stormy Day (2016)

Download

Alessandro Fadini - A Dark and Stormy Day (2016)

Alessandro Fadini – A Dark and Stormy Day (2016)
EAC | FLAC (log,tracks+cue) -> 389 Mb (5% Rec.) | Scans -> 52 Mb
Jazz, Contemporary Jazz | Label: Fresh Sound New Talent, FSNT 507 | 2016 | 01:02:19

Pianist Alessandro Fadini brings together a subtle and spacious team of Josiah Boornazian/as-ss, Jakob Dreyer/b and Lu ke Markham/dr through a subtly swinging session that is filled with lovely pastels. Boornazian’s alto is Konitz-cool and lyrical, opening the album with a arm improvisation of the title track. After that, you get soft flower petals floating as piano and bass daintily dance on “Windo Ledge” and Markham’s brushes sashay on ”Elegy For The Living World.” Together, the rhythm team creates some subtle undercurrents for Boornazian on the tensile “No Thrills II” and funky Juno.” Fadini shows his patience on the quietude of “No Thrills I” and the nimble “Mayall’s Object” Thoughtful, filled with the pastels and grey shadows of song. –George W. Harris

Tracklist:

01. Introduction to a Dark and Stormy Day 01:37
02. It Was a Dark and Stormy Day 07:43
03. Juno 08:02
04. No Thrills I 01:50
05. No Thrills II 05:52
06. Elegy for the Living Dead 07:06
07. Window Ledge 07:48
08. Love in the Age of Mechanical Reproduction 02:03
09. Starting Something 06:52
10. Mayall’s Object 06:20
11. All the Rest Is Boredom 07:13

Personnel:
Piano – Alessandro Fadini
Alto & Soprano Saxophones, Overdubs – Josiah Boornazian (tracks: 3, 11)
Bass – Jakob Dreyer
Drums – Luke Markham

Recorded at Tedesco’s Studios, Paramus, New Jersey, June 25 & 26, 2015

EAC_log
Exact Audio Copy V1.3 from 2. September 2016

EAC extraction logfile from 29. December 2016, 15:41

Alessandro Fadini / A Dark And Stormy Day

Used drive : ATAPI iHBS112 2 Adapter: 1 ID: 1

Read mode : Secure
Utilize accurate stream : Yes
Defeat audio cache : Yes
Make use of C2 pointers : No

Read offset correction : 6
Overread into Lead-In and Lead-Out : No
Fill up missing offset samples with silence : Yes
Delete leading and trailing silent blocks : No
Null samples used in CRC calculations : Yes
Used interface : Native Win32 interface for Win NT & 2000
Gap handling : Appended to previous track

Used output format : User Defined Encoder
Selected bitrate : 128 kBit/s
Quality : High
Add ID3 tag : No
Command line compressor : C:Program Files (x86)Exact Audio CopyFlacflac.exe
Additional command line options : -8 -V -T "ARTIST=%artist%" -T "TITLE=%title%" -T "ALBUM=%albumtitle%" -T "DATE=%year%" -T "TRACKNUMBER=%tracknr%" -T "GENRE=%genre%" -T "PERFORMER=%albuminterpret%" -T "COMPOSER=%composer%" -T "ALBUMARTIST=%albumartist%" -T "DISCNUMBER=%cdnumber%" -T "TOTALDISCS=%totalcds%" -T "TOTALTRACKS=%numtracks%" -T "COMMENT=EAC Secure Mode, Test & Copy, AccurateRip, FLAC -8" %source% -o %dest%

TOC of the extracted CD

Track | Start | Length | Start sector | End sector
––––––––––––––––––––––––––––-
1 | 0:00.00 | 1:36.12 | 0 | 7211
2 | 1:36.12 | 7:43.51 | 7212 | 41987
3 | 9:19.63 | 8:01.52 | 41988 | 78114
4 | 17:21.40 | 1:49.24 | 78115 | 86313
5 | 19:10.64 | 5:52.03 | 86314 | 112716
6 | 25:02.67 | 7:05.44 | 112717 | 144635
7 | 32:08.36 | 7:47.37 | 144636 | 179697
8 | 39:55.73 | 2:03.30 | 179698 | 188952
9 | 41:59.28 | 6:51.12 | 188953 | 219789
10 | 48:50.40 | 6:20.27 | 219790 | 248316
11 | 55:10.67 | 7:09.17 | 248317 | 280508

Track 1

Filename D:DLAlessandro Fadini – A Dark And Stormy Day (2016 [FLAC]1 – Introduction To A Dark and Stormy Day.wav

Pre-gap length 0:00:02.00

Peak level 73.2 %
Extraction speed 4.0 X
Track quality 100.0 %
Test CRC 4640DCC9
Copy CRC 4640DCC9
Track not present in AccurateRip database
Copy OK

Track 2

Filename D:DLAlessandro Fadini – A Dark And Stormy Day (2016 [FLAC]2 – It Was A Dark and Stormy Day.wav

Peak level 97.2 %
Extraction speed 5.8 X
Track quality 100.0 %
Test CRC 48DF5B9C
Copy CRC 48DF5B9C
Track not present in AccurateRip database
Copy OK

Track 3

Filename D:DLAlessandro Fadini – A Dark And Stormy Day (2016 [FLAC]3 – Juno.wav

Pre-gap length 0:00:03.63

Peak level 97.2 %
Extraction speed 5.9 X
Track quality 99.9 %
Test CRC 695AE0DB
Copy CRC 695AE0DB
Track not present in AccurateRip database
Copy OK

Track 4

Filename D:DLAlessandro Fadini – A Dark And Stormy Day (2016 [FLAC]4 – No Thrills – I.wav

Pre-gap length 0:00:03.40

Peak level 60.7 %
Extraction speed 6.0 X
Track quality 100.0 %
Test CRC 35800DD8
Copy CRC 35800DD8
Track not present in AccurateRip database
Copy OK

Track 5

Filename D:DLAlessandro Fadini – A Dark And Stormy Day (2016 [FLAC]5 – No Thrills – II.wav

Peak level 97.2 %
Extraction speed 7.7 X
Track quality 100.0 %
Test CRC AD247331
Copy CRC AD247331
Track not present in AccurateRip database
Copy OK

Track 6

Filename D:DLAlessandro Fadini – A Dark And Stormy Day (2016 [FLAC]6 – Elegy For The Living Dead.wav

Peak level 97.0 %
Extraction speed 7.5 X
Track quality 99.9 %
Test CRC C45E2B57
Copy CRC C45E2B57
Track not present in AccurateRip database
Copy OK

Track 7

Filename D:DLAlessandro Fadini – A Dark And Stormy Day (2016 [FLAC]7 – Window Ledge.wav

Pre-gap length 0:00:04.00

Peak level 97.1 %
Extraction speed 9.1 X
Track quality 100.0 %
Test CRC 8E854FF7
Copy CRC 8E854FF7
Track not present in AccurateRip database
Copy OK

Track 8

Filename D:DLAlessandro Fadini – A Dark And Stormy Day (2016 [FLAC]8 – Love In The Age Of Mechanical Reproduction.wav

Pre-gap length 0:00:04.07

Peak level 97.1 %
Extraction speed 7.9 X
Track quality 100.0 %
Test CRC BD23E5BB
Copy CRC BD23E5BB
Track not present in AccurateRip database
Copy OK

Track 9

Filename D:DLAlessandro Fadini – A Dark And Stormy Day (2016 [FLAC]9 – Starting Something.wav

Pre-gap length 0:00:04.00

Peak level 97.2 %
Extraction speed 9.7 X
Track quality 100.0 %
Test CRC 8B4BC367
Copy CRC 8B4BC367
Track not present in AccurateRip database
Copy OK

Track 10

Filename D:DLAlessandro Fadini – A Dark And Stormy Day (2016 [FLAC]10 – Mayall’s Object.wav

Pre-gap length 0:00:03.40

Peak level 97.2 %
Extraction speed 10.1 X
Track quality 100.0 %
Test CRC FF2E8E1A
Copy CRC FF2E8E1A
Track not present in AccurateRip database
Copy OK

Track 11

Filename D:DLAlessandro Fadini – A Dark And Stormy Day (2016 [FLAC]11 – All The Rest Is Boredom.wav

Pre-gap length 0:00:01.53

Peak level 97.2 %
Extraction speed 10.6 X
Track quality 100.0 %
Test CRC 9DE1FE39
Copy CRC 9DE1FE39
Track not present in AccurateRip database
Copy OK

None of the tracks are present in the AccurateRip database

No errors occurred

End of status report

–– CUETools DB Plugin V2.1.6

[CTDB TOCID: P2lEf7CEqP9ajLH.pmuzcTRsjas-] found
Submit result: P2lEf7CEqP9ajLH.pmuzcTRsjas- has been confirmed
Track | CTDB Status
1 | (1/1) Accurately ripped
2 | (1/1) Accurately ripped
3 | (1/1) Accurately ripped
4 | (1/1) Accurately ripped
5 | (1/1) Accurately ripped
6 | (1/1) Accurately ripped
7 | (1/1) Accurately ripped
8 | (1/1) Accurately ripped
9 | (1/1) Accurately ripped
10 | (1/1) Accurately ripped
11 | (1/1) Accurately ripped

==== Log checksum AE901EEAE8A2858ECDA7DF5D838F38D13E9042B00340E6D41EA252E7A286BF88 ====

Dynamic_Range_log
foobar2000 1.3.6 / Dynamic Range Meter 1.1.1
log date: 2017-01-12 17:24:40

––––––––––––––––––––––––––––––––––––––––
Analyzed: Alessandro Fadini / A Dark And Stormy Day
––––––––––––––––––––––––––––––––––––––––

DR Peak RMS Duration Track
––––––––––––––––––––––––––––––––––––––––
DR13 -2.71 dB -18.20 dB 1:36 01-Introduction To A Dark and Stormy Day
DR9 -0.24 dB -11.80 dB 7:44 02-It Was A Dark and Stormy Day
DR9 -0.25 dB -11.63 dB 8:02 03-Juno
DR11 -4.33 dB -20.47 dB 1:49 04-No Thrills – I
DR10 -0.25 dB -12.09 dB 5:52 05-No Thrills – II
DR10 -0.26 dB -12.57 dB 7:06 06-Elegy For The Living Dead
DR11 -0.25 dB -13.22 dB 7:47 07-Window Ledge
DR10 -0.25 dB -12.16 dB 2:03 08-Love In The Age Of Mechanical Reproduction
DR11 -0.25 dB -12.83 dB 6:51 09-Starting Something
DR10 -0.24 dB -12.82 dB 6:20 10-Mayall’s Object
DR10 -0.24 dB -12.46 dB 7:09 11-All The Rest Is Boredom
––––––––––––––––––––––––––––––––––––––––

Number of tracks: 11
Official DR value: DR10

Samplerate: 44100 Hz
Channels: 2
Bits per sample: 16
Bitrate: 826 kbps
Codec: FLAC
================================================================================

Thanks to the original releaser

Alessandro Fadini – A Dark and Stormy Day (2016) Download, Warez, DDL, Free, Full Album, Torrent, Legal.

Download


  • Recent Posts

  • Recent Tags