Akhenaton – Divine Symphonies (1995)

Download
Akhenaton - Divine Symphonies (1995)

Akhenaton – Divine Symphonies (1995)
EAC Rip | FLAC (tracks+.cue, log) | Artwork | 237 mb | MP3 CBR 320kbps | RAR | 99 mb
Black Metal, Avantgarde | Label: Adipocere Records – CD AR 030

Very old and rare release of the Frenchman Lord Vincent Akhenaton. The album is a 42-minute audio tour, consisting of 93 percent of the symphonic ambient and 7 percent of the symphonic black metal.

Akhenaton - Divine Symphonies (1995)

Tracklist:

01. Act I: Raising (Intro)
02. Act II: Unutterable Verity
03. Act III: Remissions / The Sign of Herou
04. Act IV: In the Circle of Wizards / Ritual
05. Act V: Chase With the Shadows
06. Act VI: Cross the Styx (Dance With the Souls)
07. Act VII: The Kingdom of Wisdom
08. Act VIII: At the Gates of Obscurity
09. Act IX: Final Battle (Against Your Dark Side)
10. Act X: Pharao (The Karma of the Hierophante)

Akhenaton - Divine Symphonies (1995)
EAC log
Exact Audio Copy V1.0 beta 2 from 29. April 2011

EAC extraction logfile from 12. September 2011, 13:38

Akhenaton / Divine Symphonies

Used drive : SlimtypeDVDRW SSM-8515S Adapter: 0 ID: 1

Read mode : Secure
Utilize accurate stream : Yes
Defeat audio cache : Yes
Make use of C2 pointers : No

Read offset correction : 594
Overread into Lead-In and Lead-Out : No
Fill up missing offset samples with silence : Yes
Delete leading and trailing silent blocks : No
Null samples used in CRC calculations : Yes
Used interface : Native Win32 interface for Win NT & 2000
Gap handling : Appended to previous track

Used output format : User Defined Encoder
Selected bitrate : 128 kBit/s
Quality : High
Add ID3 tag : No
Command line compressor : C:Program FilesExact Audio CopyFlacflac.exe
Additional command line options : -8 -V -T "ARTIST=%artist%" -T "TITLE=%title%" -T "ALBUM=%albumtitle%" -T "DATE=%year%" -T "TRACKNUMBER=%tracknr%" -T "GENRE=%genre%" -T "PERFORMER=%albuminterpret%" -T "COMPOSER=%composer%" %haslyrics%–tag-from-file=LYRICS

TOC of the extracted CD

Track | Start | Length | Start sector | End sector
––––––––––––––––––––––––––––-
1 | 0:00.00 | 0:33.53 | 0 | 2527
2 | 0:33.53 | 7:07.09 | 2528 | 34561
3 | 7:40.62 | 8:04.14 | 34562 | 70875
4 | 15:45.01 | 5:05.28 | 70876 | 93778
5 | 20:50.29 | 3:06.08 | 93779 | 107736
6 | 23:56.37 | 2:11.21 | 107737 | 117582
7 | 26:07.58 | 5:17.16 | 117583 | 141373
8 | 31:24.74 | 3:09.36 | 141374 | 155584
9 | 34:34.35 | 4:08.10 | 155585 | 174194
10 | 38:42.45 | 3:40.63 | 174195 | 190757

Track 1

Filename J:EAC RipsAkhenaton – Divine Symphonies (1995) [FLAC]1 – Act I- Raising (Intro).wav

Pre-gap length 0:00:02.00

Peak level 95.4 %
Extraction speed 0.5 X
Track quality 100.0 %
Test CRC 2A04094D
Copy CRC 2A04094D
Track not present in AccurateRip database
Copy OK

Track 2

Filename J:EAC RipsAkhenaton – Divine Symphonies (1995) [FLAC]2 – Act II- Unutterable Verity.wav

Peak level 98.8 %
Extraction speed 1.1 X
Track quality 100.0 %
Test CRC A3B06EDE
Copy CRC A3B06EDE
Track not present in AccurateRip database
Copy OK

Track 3

Filename J:EAC RipsAkhenaton – Divine Symphonies (1995) [FLAC]3 – Act III- Remissions , The Sign of Herou.wav

Peak level 98.8 %
Extraction speed 1.4 X
Track quality 100.0 %
Test CRC 340CF842
Copy CRC 340CF842
Track not present in AccurateRip database
Copy OK

Track 4

Filename J:EAC RipsAkhenaton – Divine Symphonies (1995) [FLAC]4 – Act IV- In the Circle of Wizards , Ritual.wav

Pre-gap length 0:00:00.86

Peak level 98.8 %
Extraction speed 1.5 X
Track quality 100.0 %
Test CRC 652C8261
Copy CRC 652C8261
Track not present in AccurateRip database
Copy OK

Track 5

Filename J:EAC RipsAkhenaton – Divine Symphonies (1995) [FLAC]5 – Act V- Chase With the Shadows.wav

Pre-gap length 0:00:00.86

Peak level 95.4 %
Extraction speed 1.5 X
Track quality 100.0 %
Test CRC DCD6C67E
Copy CRC DCD6C67E
Track not present in AccurateRip database
Copy OK

Track 6

Filename J:EAC RipsAkhenaton – Divine Symphonies (1995) [FLAC]6 – Act VI- Cross the Styx (Dance With the Souls).wav

Pre-gap length 0:00:01.73

Peak level 62.6 %
Extraction speed 1.4 X
Track quality 100.0 %
Test CRC C7037A78
Copy CRC C7037A78
Track not present in AccurateRip database
Copy OK

Track 7

Filename J:EAC RipsAkhenaton – Divine Symphonies (1995) [FLAC]7 – Act VII- The Kingdom of Wisdom.wav

Peak level 97.0 %
Extraction speed 1.7 X
Track quality 100.0 %
Test CRC 8C089C21
Copy CRC 8C089C21
Track not present in AccurateRip database
Copy OK

Track 8

Filename J:EAC RipsAkhenaton – Divine Symphonies (1995) [FLAC]8 – Act VIII- At the Gates of Obscurity.wav

Pre-gap length 0:00:00.86

Peak level 95.2 %
Extraction speed 1.7 X
Track quality 100.0 %
Test CRC 1C379860
Copy CRC 1C379860
Track not present in AccurateRip database
Copy OK

Track 9

Filename J:EAC RipsAkhenaton – Divine Symphonies (1995) [FLAC]9 – Act IX- Final Battle (Against Your Dark Side).wav

Pre-gap length 0:00:00.86

Peak level 98.8 %
Extraction speed 1.8 X
Track quality 100.0 %
Test CRC 4E675A1C
Copy CRC 4E675A1C
Track not present in AccurateRip database
Copy OK

Track 10

Filename J:EAC RipsAkhenaton – Divine Symphonies (1995) [FLAC]10 – Act X- Pharao (The Karma of the Hierophante).wav

Pre-gap length 0:00:01.73

Peak level 88.3 %
Extraction speed 1.8 X
Track quality 100.0 %
Test CRC DA6DBA62
Copy CRC DA6DBA62
Track not present in AccurateRip database
Copy OK

None of the tracks are present in the AccurateRip database

No errors occurred

End of status report

==== Log checksum 9D69EDA5B57441555545093AEA44C3E45FFB25F7866DEEE192C1BA0BE72736CC ====

Thanks to the Original customer.

Akhenaton – Divine Symphonies (1995) Download, Warez, DDL, Free, Full Album, Torrent, Legal.

Download