Airelle Besson, Edouard Ferlet & Stéphane Kerecki – Aïrés (2017)

Download
Airelle Besson, Edouard Ferlet & Stéphane Kerecki - Aïrés (2017)

Airelle Besson, Edouard Ferlet & Stéphane Kerecki – Aïrés
Jazz | WEB FLAC (tracks) & d. booklet | 61:19 min | 281 MB
Label: Alpha | Tracks: 12 | Rls.date: 2017

Édouard Ferlet has already explored intriguing byways for the Alpha label: in 2015 he and Violaine Cochard recorded Plucked Unplucked , an album associating piano and harpsichord a successful venture that will soon see a follow-up. The bassist Stéphane Kerecki has already made several recordings for Outhere, including Nouvelle Vague , a prizewinner at the Victoires de la Musique. The career of the trumpet player Airelle Besson has been on a high since 2015, when she won both the Prix Django Reinhardt of the Académie du Jazz and the Révélation Award at the Victoires du Jazz. These three jazz musicians met and decided to form a trio in order to combine their universes and their ambitions. Here is the fruit of their first year of companionship, a programme presenting compositions by each of them, an album wearing the colours of jazz but featuring several tracks directly inspired by great standards of the classical repertoire, including Es ist vollbracht from Bach s St John Passion, the Pavanes of Ravel and Fauré, the Valse sentimentale of Tchaikovsky, and Khachaturian’s Sabre Dance, which can be recognised behind the Stances du sabre . The refinement of the compositions and the playing and the musicians capacity for listening to each other are a source of endless pleasure and fulfilment.

TRACKLIST
01. Es ist vollbracht
02. Infinité
03. Pavane pour une infante défunte
04. Soon
05. Manarola
06. L’histoire d’un enfant de Saint-Agil
07. Valse sentimentale, Op. 51 No. 6
08. Windfall
09. Les stances du sabre
10. Pavane, Op. 50
11. Indemne
12. Résonance

auCDtect
PERFORMER: auCDtect Task Manager, ver. 1.6.0 RC1 build 1.6.0.1
Copyright © 2008-2010 y-soft. All rights reserved

ANALYZER: auCDtect: CD records authenticity detector, version 0.8.2
Copyright © 2004 Oleg Berngardt. All rights reserved.
Copyright © 2004 Alexander Djourik. All rights reserved.

FILE: 12. Résonance.flac
Size: 30405033 Hash: D812FBE3A8075117ECC8CDBB2AFC2088 Accuracy: -m0
Conclusion: CDDA 100%
Signature: 2139525E1EA7E8DD53D2F3A5D0EB6A0D11496799
FILE: 11. Indemne.flac
Size: 21413816 Hash: BD9290928515F9EBA54ED355721E8C1E Accuracy: -m0
Conclusion: CDDA 99%
Signature: 272177169B48DDBE06C020BE521C58A80D9D4D86
FILE: 10. Pavane, Op. 50.flac
Size: 22075983 Hash: B9391709152B017048D10EAAFA97593D Accuracy: -m0
Conclusion: CDDA 99%
Signature: 7CFD9DB0B9862029D4D6A82BE5C54CEF6A3494F9
FILE: 09. Les stances du sabre.flac
Size: 18926290 Hash: 95158D5A6255D443D04D8058E81E98C0 Accuracy: -m0
Conclusion: CDDA 100%
Signature: 2A7811787FB621E47570DE43D113D66C1302F1CB
FILE: 08. Windfall.flac
Size: 24616410 Hash: BB1B0DC0E3DC03CE6D693E1C882D62FE Accuracy: -m0
Conclusion: CDDA 100%
Signature: 12FE315FD14DD2320F6D47E57E9A48A971454135
FILE: 07. Valse sentimentale, Op. 51 No. 6.flac
Size: 15560112 Hash: 65878E2E4BD94428A465AE709C499C07 Accuracy: -m0
Conclusion: CDDA 100%
Signature: D2764147CEAF34A9972F9D33899ADE9EF71C410D
FILE: 06. L’histoire d’un enfant de Saint-Agil.flac
Size: 32275234 Hash: 00F2D42D3C141DDAA8ED7BA439B173FF Accuracy: -m0
Conclusion: CDDA 100%
Signature: 69F80E68DCA1BCD15033558F26374B1A14CE7956
FILE: 05. Manarola.flac
Size: 27276062 Hash: D0736CFCADC4FA49D8FAA675A3314AE2 Accuracy: -m0
Conclusion: CDDA 100%
Signature: C92CAA2EB6EC1E7C89B8EB18750C58DAD4F8BCA8
FILE: 04. Soon.flac
Size: 24462285 Hash: 21762C503A38D8D461F70211703EAC78 Accuracy: -m0
Conclusion: CDDA 100%
Signature: A3032CDC9E9269FE2A15DE5437917177BA97277F
FILE: 03. Pavane pour une infante défunte.flac
Size: 25758745 Hash: DCE73741813D3C9E440BDE08B75ACC81 Accuracy: -m0
Conclusion: CDDA 100%
Signature: 69E1EED3322A9028CD070C89576D2711D67496F1
FILE: 02. Infinité.flac
Size: 23092339 Hash: 8B327B7D8BA90A2F6001F207A935A32D Accuracy: -m0
Conclusion: CDDA 100%
Signature: 3BB6895707F14B5F634F9073941E3ABC383D3CAB
FILE: 01. Es ist vollbracht.flac
Size: 26362340 Hash: 00B0B46BBDEA15AA9E0F768D2E8ABC5C Accuracy: -m0
Conclusion: CDDA 100%
Signature: E2DA16DC20025BD09C09B12F1002C3BF1DEA393D

DR
foobar2000 1.3.7 / Dynamic Range Meter 1.1.1
log date: 2017-10-13 18:07:22

––––––––––––––––––––––––––––––––––––––––
Analyzed: Airelle Besson, Edouard Ferlet & Stéphane Kerecki / Aïrés
––––––––––––––––––––––––––––––––––––––––

DR Peak RMS Duration Track
––––––––––––––––––––––––––––––––––––––––
DR7 -0.27 dB -10.20 dB 5:17 01-Es ist vollbracht
DR7 -0.27 dB -10.75 dB 4:41 02-Infinité
DR8 -0.29 dB -11.36 dB 5:24 03-Pavane pour une infante défunte
DR9 -0.29 dB -12.48 dB 5:17 04-Soon
DR9 -0.28 dB -11.87 dB 5:42 05-Manarola
DR8 -0.29 dB -11.56 dB 6:48 06-L’histoire d’un enfant de Saint-Agil
DR10 -0.29 dB -13.90 dB 3:27 07-Valse sentimentale, Op. 51 No. 6
DR9 -0.29 dB -12.69 dB 5:17 08-Windfall
DR8 -0.25 dB -11.42 dB 4:02 09-Les stances du sabre
DR7 -0.28 dB -10.95 dB 4:33 10-Pavane, Op. 50
DR8 -0.29 dB -10.72 dB 4:28 11-Indemne
DR8 -0.29 dB -12.27 dB 6:29 12-Résonance
––––––––––––––––––––––––––––––––––––––––

Number of tracks: 12
Official DR value: DR8

Samplerate: 44100 Hz
Channels: 2
Bits per sample: 16
Bitrate: 616 kbps
Codec: FLAC
================================================================================

Airelle Besson, Edouard Ferlet & Stéphane Kerecki - Aïrés (2017)
Thanks to the Original customer.

Airelle Besson, Edouard Ferlet & Stéphane Kerecki – Aïrés (2017) Download, Warez, DDL, Free, Full Album, Torrent, Legal.

Download