After The Fall – 3 Studio Albums (1997-2005) | ViralVideoPk

Daily Dose of Free Downloads

After The Fall – 3 Studio Albums (1997-2005)

Download

After The Fall - 3 Studio Albums (1997-2005)

After The Fall – 3 Studio Albums (1997-2005)
EAC Rip | FLAC (image+.cue+log) – 1,56 GB | MP3 CBR 320 kbps (LAME 3.93) – 530 MB | Covers – 44 MB
Genre: Progressive Rock | RAR 3% Rec. | Label: FOM

Hailing from Connecticut, After The Fall have been around since the late 1980’s, and their line-up consists of Mark Benson (vocals,guitars), Ken Archer (keyboards), Jeff Brewer (bass) and Rich Kornacki (drums,percussion). The Band plays in a modern progressive style that is predominantly art rock but combines elements of symphonic and neo with a tinge of prog metal, yet pays homage to the greats of the past. If you like long tracks with wonderful vocals and lyrics, tasty and muscular guitar work, lots of vintage keyboards, sinewy bass playing and complex, nimble drum work, After The Fall is definitely the band for you.

Progarchives

After The Fall - 3 Studio Albums (1997-2005)

After The Fall – In a Safe Place (1997)
EAC Rip | FLAC (image+.cue+log) – 544 MB | MP3 CBR 320 kbps (LAME 3.93) – 173 MB | Covers – 9 MB
Genre: Progressive Rock | RAR 3% Rec. | Label: FOM (ATF9701)

Tracklist:
01. Mirage
02. Up My Sleeve
03. Moonus Starus
04. The Gavel
05. Machu Picchu
06. Pierce the Hide
07. Smooth
08. In a Safe Place
09. Escaping Gravity
10. Monads

Total time: 01:13:35

EAC log
Exact Audio Copy V0.99 prebeta 5 from 4. May 2009

Отчёт EAC об извлечении, выполненном 8. мая 2010, 16:45

After the fall / In a Safe Place

Дисковод: PIONEER DVD-RW DVR-118L Adapter: 1 ID: 1

Режим чтения : Достоверность
Использование точного потока : Да
Отключение кэша аудио : Да
Использование указателей C2 : Нет

Коррекция смещения при чтении : 6
Способность читать области Lead-in и Lead-out : Нет
Заполнение пропущенных сэмплов тишиной : Да
Удаление блоков с тишиной в начале и конце : Нет
При вычислениях CRC использовались нулевые сэмплы : Да
Интерфейс : Встроенный Win32-интерфейс для Win NT/2000

Выходной формат : Внутренние WAV-операции
Формат сэмплов : 44.100 Гц; 16 бит; стерео

TOC извлечённого CD

Трек | Старт | Длительность | Начальный сектор | Конечный сектор
––––––––––––––––––––––––––––––––––-
1 | 0:00.00 | 9:58.40 | 0 | 44889
2 | 9:58.40 | 5:20.47 | 44890 | 68936
3 | 15:19.12 | 6:57.28 | 68937 | 100239
4 | 22:16.40 | 4:57.60 | 100240 | 122574
5 | 27:14.25 | 6:42.12 | 122575 | 152736
6 | 33:56.37 | 7:34.18 | 152737 | 186804
7 | 41:30.55 | 6:31.22 | 186805 | 216151
8 | 48:02.02 | 5:43.10 | 216152 | 241886
9 | 53:45.12 | 6:28.70 | 241887 | 271056
10 | 60:14.07 | 13:20.50 | 271057 | 331106

Характеристики диапазона извлечения и сообщения об ошибках

Выбранный диапазон

Имя файла D:CD TorrentAfter the FallIn a safe place 1997After the fall – In a Safe Place.wav

Пиковый уровень 99.4 %
Качество диапазона 99.9 %
CRC копии 82FD1BBF
Копирование… OK

Ошибок не произошло

AccurateRip: сводка

Трек 1 точное извлечение (доверие 2) [BC8E2EE5]
Трек 2 точное извлечение (доверие 2) [1A836475]
Трек 3 точное извлечение (доверие 2) [219B38C4]
Трек 4 точное извлечение (доверие 2) [4E4A6535]
Трек 5 точное извлечение (доверие 2) [ED193B9D]
Трек 6 точное извлечение (доверие 2) [A2296512]
Трек 7 точное извлечение (доверие 2) [F8B4BB1B]
Трек 8 точное извлечение (доверие 2) [540C0A20]
Трек 9 точное извлечение (доверие 2) [B441E7C7]
Трек 10 точное извлечение (доверие 2) [92837DF0]

Все треки извлечены точно

Конец отчёта

CUETools log
[CUETools log; Date: 22.12.2016 5:50:41; Version: 2.1.4]
[CTDB TOCID: tX_ak69nFZ7TW310_274sY3NXvA-] found.
Track | CTDB Status
1 | (2/2) Accurately ripped
2 | (2/2) Accurately ripped
3 | (2/2) Accurately ripped
4 | (2/2) Accurately ripped
5 | (2/2) Accurately ripped
6 | (2/2) Accurately ripped
7 | (2/2) Accurately ripped
8 | (2/2) Accurately ripped
9 | (2/2) Accurately ripped
10 | (2/2) Accurately ripped
[AccurateRip ID: 001a7ec3-00d27896-85113e0a] found.
Track [ CRC | V2 ] Status
01 [bc8e2ee5|b8723229] (1+0/1) Accurately ripped
02 [1a836475|0ec735a8] (1+0/1) Accurately ripped
03 [219b38c4|05d54cf1] (1+0/1) Accurately ripped
04 [4e4a6535|107c970d] (1+0/1) Accurately ripped
05 [ed193b9d|e7e1a665] (1+0/1) Accurately ripped
06 [a2296512|70fc2816] (1+0/1) Accurately ripped
07 [f8b4bb1b|fd58408f] (1+0/1) Accurately ripped
08 [540c0a20|eddaba9a] (1+0/1) Accurately ripped
09 [b441e7c7|0b5a2cd7] (1+0/1) Accurately ripped
10 [92837df0|355b7361] (1+0/1) Accurately ripped

Track Peak [ CRC32 ] [W/O NULL] [ LOG ]
– 99,4 [82FD1BBF] [3F6411F7] CRC32
01 83,6 [ADDC4579] [CA2BF41B]
02 99,4 [56AA6C47] [E63558ED]
03 99,4 [25C23108] [B03DD711]
04 99,4 [FFE3E44D] [ABB28478]
05 99,4 [BF2B465D] [C7D5255B]
06 99,4 [24D800E5] [458B5B2A]
07 99,4 [0B9BBE33] [DBD36072]
08 99,4 [3D695EB6] [5681B0DB]
09 99,4 [BB9E6415] [D735D342]
10 99,4 [F2E4E54F] [ED6B24F0]

After The Fall - 3 Studio Albums (1997-2005)

After The Fall – The Living Drum (2001)
EAC Rip | FLAC (image+.cue+log) – 509 MB | MP3 CBR 320 kbps (LAME 3.93) – 174 MB | Covers – 18 MB
Genre: Progressive Rock | RAR 3% Rec. | Label: FOM (FOM0101)

Tracklist:
01. The Year Of The Dragon
02. The Mystic
03. Dancing With Daggers
05. It All Flows To The Sea
06. Christina’s Song
07. Whitehead Street
08. The Living Drum
I) The Search, The Answer
II) The View
III) Vagabonds Promenade
IV) The Drum
V) The Fire Dance
VI) Realization
VII) The Running Waters Of Amakanu
09. Rose Hill
10. Reprise

Total time: 01:14:03

EAC log
Exact Audio Copy V0.99 prebeta 5 from 4. May 2009

Отчёт EAC об извлечении, выполненном 1. июля 2010, 21:57

After the fall / The Living drum

Дисковод: PIONEER DVD-RW DVR-118L Adapter: 1 ID: 1

Режим чтения : Достоверность
Использование точного потока : Да
Отключение кэша аудио : Да
Использование указателей C2 : Нет

Коррекция смещения при чтении : 6
Способность читать области Lead-in и Lead-out : Нет
Заполнение пропущенных сэмплов тишиной : Да
Удаление блоков с тишиной в начале и конце : Нет
При вычислениях CRC использовались нулевые сэмплы : Да
Интерфейс : Встроенный Win32-интерфейс для Win NT/2000

Выходной формат : Внутренние WAV-операции
Формат сэмплов : 44.100 Гц; 16 бит; стерео

TOC извлечённого CD

Трек | Старт | Длительность | Начальный сектор | Конечный сектор
––––––––––––––––––––––––––––––––––-
1 | 0:00.00 | 9:43.47 | 0 | 43771
2 | 9:43.47 | 2:51.73 | 43772 | 56669
3 | 12:35.45 | 8:08.22 | 56670 | 93291
4 | 20:43.67 | 6:32.18 | 93292 | 122709
5 | 27:16.10 | 11:55.67 | 122710 | 176401
6 | 39:12.02 | 2:57.08 | 176402 | 189684
7 | 42:09.10 | 5:03.60 | 189685 | 212469
8 | 47:12.70 | 19:33.02 | 212470 | 300446
9 | 66:45.72 | 2:55.15 | 300447 | 313586
10 | 69:41.12 | 4:21.40 | 313587 | 333201

Характеристики диапазона извлечения и сообщения об ошибках

Выбранный диапазон

Имя файла D:CD TorrentAfter the FallThe Living Drum 2001After the fall – The Living drum.wav

Пиковый уровень 100.0 %
Качество диапазона 99.9 %
CRC копии C012AE00
Копирование… OK

Ошибок не произошло

AccurateRip: сводка

Трек 1 точное извлечение (доверие 3) [DA866F3A]
Трек 2 точное извлечение (доверие 3) [C6ADE17F]
Трек 3 точное извлечение (доверие 3) [38131302]
Трек 4 точное извлечение (доверие 3) [03F16197]
Трек 5 точное извлечение (доверие 3) [E0E9D5E0]
Трек 6 точное извлечение (доверие 3) [9079C1B5]
Трек 7 точное извлечение (доверие 3) [F81CC730]
Трек 8 точное извлечение (доверие 3) [987B9433]
Трек 9 точное извлечение (доверие 3) [951B556C]
Трек 10 точное извлечение (доверие 3) [19F3405E]

Все треки извлечены точно

Конец отчёта

CUETools log
[CUETools log; Date: 22.12.2016 5:51:55; Version: 2.1.4]
[CTDB TOCID: 1RdGu84z6Y0C6nX_e3yj9yqcdBk-] found.
Track | CTDB Status
1 | (2/2) Accurately ripped
2 | (2/2) Accurately ripped
3 | (2/2) Accurately ripped
4 | (2/2) Accurately ripped
5 | (2/2) Accurately ripped
6 | (2/2) Accurately ripped
7 | (2/2) Accurately ripped
8 | (2/2) Accurately ripped
9 | (2/2) Accurately ripped
10 | (2/2) Accurately ripped
[AccurateRip ID: 001c1c3d-00e25e9b-8a115a0a] found.
Track [ CRC | V2 ] Status
01 [da866f3a|ed66df87] (4+0/4) Accurately ripped
02 [c6ade17f|427eabc7] (4+0/4) Accurately ripped
03 [38131302|11d0c203] (4+0/4) Accurately ripped
04 [03f16197|398b55b0] (4+0/4) Accurately ripped
05 [e0e9d5e0|84124a7c] (4+0/4) Accurately ripped
06 [9079c1b5|295c7114] (4+0/4) Accurately ripped
07 [f81cc730|f646dd8d] (4+0/4) Accurately ripped
08 [987b9433|3302bf11] (4+0/4) Accurately ripped
09 [951b556c|134651eb] (4+0/4) Accurately ripped
10 [19f3405e|92b6b010] (4+0/4) Accurately ripped

Track Peak [ CRC32 ] [W/O NULL] [ LOG ]
– 100,0 [C012AE00] [3616DA40] CRC32
01 99,9 [A3EB6E9F] [E1CE5C87]
02 95,4 [0FDAC543] [6BDB4262]
03 99,9 [B3F5A878] [86E3602C]
04 99,9 [31F50433] [4BDDB82D]
05 99,9 [43708FFB] [0A9DF8A1]
06 100,0 [DA5D739C] [21965233]
07 99,9 [7D1D6F5F] [C17AFA74]
08 99,9 [C2FCFBEC] [0032AEEA]
09 99,9 [D716ADC6] [6C43F224]
10 99,9 [96160B3A] [AD1644F3]

After The Fall - 3 Studio Albums (1997-2005)

After The Fall – kNOwleDGE (2005)
EAC Rip | FLAC (image+.cue+log) – 511 MB | MP3 CBR 320 kbps (LAME 3.93) – 183 MB | Covers – 17 MB
Genre: Progressive Rock | RAR 3% Rec. | Label: FOM (FOM0105)

Tracklist:
01. Came the Healer
02. The Call
03. Motherland
I) Motherland
II) A Call To Arms
III) Battle Cry
IV) The Realm
V) In The Arms Of Love
04. Between Images Flesh And Shadows
05. Precariously Poised On The Precipice Of Pandemonium
06. Ode To Man
I) Did You Know?
II) The Family
III) The Race
IV) Reflections

Total time: 01:17:59

EAC log
Exact Audio Copy V0.99 prebeta 5 from 4. May 2009

Отчёт EAC об извлечении, выполненном 8. мая 2010, 16:06

After the fall / kNOwleDGE

Дисковод: PIONEER DVD-RW DVR-118L Adapter: 1 ID: 1

Режим чтения : Достоверность
Использование точного потока : Да
Отключение кэша аудио : Да
Использование указателей C2 : Нет

Коррекция смещения при чтении : 6
Способность читать области Lead-in и Lead-out : Нет
Заполнение пропущенных сэмплов тишиной : Да
Удаление блоков с тишиной в начале и конце : Нет
При вычислениях CRC использовались нулевые сэмплы : Да
Интерфейс : Встроенный Win32-интерфейс для Win NT/2000

Выходной формат : Внутренние WAV-операции
Формат сэмплов : 44.100 Гц; 16 бит; стерео

TOC извлечённого CD

Трек | Старт | Длительность | Начальный сектор | Конечный сектор
––––––––––––––––––––––––––––––––––-
1 | 0:00.00 | 19:26.18 | 0 | 87467
2 | 19:26.18 | 7:52.03 | 87468 | 122870
3 | 27:18.21 | 20:41.59 | 122871 | 216004
4 | 48:00.05 | 2:49.52 | 216005 | 228731
5 | 50:49.57 | 7:35.21 | 228732 | 262877
6 | 58:25.03 | 19:34.15 | 262878 | 350942

Характеристики диапазона извлечения и сообщения об ошибках

Выбранный диапазон

Имя файла D:CD TorrentAfter the FallKNOlwleDGE 2005After the fall – kNOwleDGE.wav

Пиковый уровень 99.8 %
Качество диапазона 100.0 %
CRC копии C034676E
Копирование… OK

Ошибок не произошло

AccurateRip: сводка

Трек 1 точное извлечение (доверие 3) [47DB4588]
Трек 2 точное извлечение (доверие 3) [4E14DD6A]
Трек 3 точное извлечение (доверие 3) [B9008939]
Трек 4 точное извлечение (доверие 3) [6756043D]
Трек 5 точное извлечение (доверие 3) [A9DDEF5D]
Трек 6 точное извлечение (доверие 3) [140A6116]

Все треки извлечены точно

Конец отчёта

CUETools log
[CUETools log; Date: 22.12.2016 5:51:19; Version: 2.1.4]
[CTDB TOCID: v3UpxHteA6JIbmVuqeq6PGs4x.Q-] found.
Track | CTDB Status
1 | (1/1) Accurately ripped
2 | (1/1) Accurately ripped
3 | (1/1) Accurately ripped
4 | (1/1) Accurately ripped
5 | (1/1) Accurately ripped
6 | (1/1) Accurately ripped
[AccurateRip ID: 00135ca1-00647b0b-49124706] found.
Track [ CRC | V2 ] Status
01 [47db4588|265888ef] (4+0/4) Accurately ripped
02 [4e14dd6a|47d1460e] (4+0/4) Accurately ripped
03 [b9008939|2ecb5847] (4+0/4) Accurately ripped
04 [6756043d|ea311961] (4+0/4) Accurately ripped
05 [a9ddef5d|b15af680] (4+0/4) Accurately ripped
06 [140a6116|5b11474f] (4+0/4) Accurately ripped

Track Peak [ CRC32 ] [W/O NULL] [ LOG ]
– 99,8 [C034676E] [456796F7] CRC32
01 98,8 [9E16B523] [380EA581]
02 91,2 [9246675A] [20124809]
03 99,8 [8FC7A6D1] [E382A354]
04 91,3 [CC21A590] [78FEF832]
05 92,0 [3C577D98] [87DBF6E2]
06 97,0 [8402FBEF] [B2932E63]

Thanks to Комаров Сергей

Welcome to My Blog!

After The Fall – 3 Studio Albums (1997-2005) Download, Warez, DDL, Free, Full Album, Torrent, Legal.

Download


  • Recent Posts

  • Recent Tags