Adriano Celentano – Deus (1981)

Download
Adriano Celentano - Deus (1981)

Adriano Celentano – Deus (1981)
EAC | Flac(Image) + Cue + Log & MP3 CBR 320Kbps
2002 | Clan Celentano, CLN 20262 | ~ 217 or 75 Mb | Scans(jpg) -> 15 Mb
Rock & Roll, Pop Rock, Reggae-Pop

One of Italy’s best-loved artists, Adriano Celentano has been equally successful in film and music. Whether singing Elvis Presley-inspired rock, as he did as a member of the Rock Boys in 1957, or romantic balladry, Celentano found a dedicated market for his music. Reaching the top of the Italian music charts with his debut single "Il Tuo Bacio e Come un Skirt" in 1959, he matched its success with the million-selling "24000 Baci (24,000 Kisses)" in 1961; "Il Ragazzo Della Via Gluck," which went on to be translated and re-recorded in 18 languages, in 1966; and Prisencolinensinainciusol in 1972.

Celentano’s albums have been similarly embraced. His debut album, Non Mi Dir, reached the top position of Italy’s charts in 1965. His album Soli spent 58 weeks on the charts in 1978-1979. Although he left music for nearly two decades to focus on his career as an actor, Celentano later recaptured the momentum of his early career. His comeback album, Mina + Celentano, was a major hit in 1998 while his second album, Francamente Me Ne Infischio, based on the television-variety show that he agreed to host in 1999, spent several weeks at the top of Italy’s album charts. Esco di Rado – E Parlo Ancora Meno, the third album since Celentano returned to music, sold more than 600,000 copies before its release.
Celentano continued to balance his music career with his work in Italian cinema. As an actor, he made his theatrical debut in such movies as Dai, Johnny, Dai!, I Ragazzi del Jukebox, I Frenetici in 1959, and Fellini’s classic La Dolce Vita in 1960. His subsequent screen appearances included roles in such films as The Sin, Rugantino, Give Me Five, Il Bisbetico Domato, and Segni Parsticolari: Bellissimo. Having made his debut as a producer and director with the 1974 film Yuppi Du, Celentano wen on to direct such films as L’atra Meta Del Cielo and Geppo Il Folle. His first long-term experience with television came in late 1987 when he agreed to host the variety show Fantastico 8.

by Craig Harris, allmusic

Adriano Celentano - Deus (1981)

Adriano Celentano at Wiki | Adriano Celentano at Discogs | Adriano Celentano at Allmusic | Adriano Celentano HomePage

***********

Adriano Celentano – Deus (1981):

Adriano Celentano - Deus (1981)

Tracklist:

01. Deus [5:41]
02. Mi fanno ridere [4:23]
03. Crazy movie [2:19]
04. Quando [3:45]
05. L’artigiano [7:12]
06. L’estate e gia qua [2:35]
07. Dove Vai Jack? [3:23]
08. L’ora del rock [2:22]

EAC Log
Exact Audio Copy V1.1 from 23. June 2015

EAC extraction logfile from 11. June 2016, 21:08

ADRIANO CELENTANO / Deus (Italy, CLAN, CLN 20262)

Used drive : ASUS DRW-24B3ST Adapter: 1 ID: 2

Read mode : Secure
Utilize accurate stream : Yes
Defeat audio cache : Yes
Make use of C2 pointers : No

Read offset correction : 6
Overread into Lead-In and Lead-Out : No
Fill up missing offset samples with silence : Yes
Delete leading and trailing silent blocks : No
Null samples used in CRC calculations : Yes
Used interface : Native Win32 interface for Win NT & 2000

Used output format : User Defined Encoder
Selected bitrate : 1024 kBit/s
Quality : High
Add ID3 tag : No
Command line compressor : C:Program FilesEAC(v.1.1)WVwavpack.exe
Additional command line options : -h -hh -m %source%

TOC of the extracted CD

Track | Start | Length | Start sector | End sector
––––––––––––––––––––––––––––-
1 | 0:00.00 | 5:41.10 | 0 | 25584
2 | 5:41.10 | 4:22.70 | 25585 | 45304
3 | 10:04.05 | 2:19.10 | 45305 | 55739
4 | 12:23.15 | 3:45.27 | 55740 | 72641
5 | 16:08.42 | 7:12.15 | 72642 | 105056
6 | 23:20.57 | 2:35.15 | 105057 | 116696
7 | 25:55.72 | 3:22.43 | 116697 | 131889
8 | 29:18.40 | 2:21.70 | 131890 | 142534

Range status and errors

Selected range

Filename F:ADRIANO CELENTANO – Deus (1981) (IT 2002 Clan Celentano S.p.A. • CLN 20262)ADRIANO CELENTANO – Deus (Italy, CLAN, CLN 20262).wav

Peak level 99.9 %
Extraction speed 6.7 X
Range quality 100.0 %
Test CRC 005A6D1C
Copy CRC 005A6D1C
Copy OK

No errors occurred

AccurateRip summary

Track 1 accurately ripped (confidence 2) [55D7FB14] (AR v1)
Track 2 accurately ripped (confidence 2) [0E8D497F] (AR v1)
Track 3 accurately ripped (confidence 2) [9A9D5789] (AR v1)
Track 4 accurately ripped (confidence 2) [7AF3FA13] (AR v1)
Track 5 accurately ripped (confidence 2) [CB60F978] (AR v1)
Track 6 accurately ripped (confidence 2) [DDA31BB2] (AR v1)
Track 7 accurately ripped (confidence 2) [E9FB9BFC] (AR v1)
Track 8 accurately ripped (confidence 2) [E957DA31] (AR v1)

All tracks accurately ripped

End of status report

==== Log checksum AED4DE5A905C37FF198EB77A7F9BD514719753E5CD6636E986EE006AAB0FC7EC ====

DR Log
foobar2000 1.2.9 / Dynamic Range Meter 1.1.1
log date: 2017-02-10 23:41:32

––––––––––––––––––––––––––––––––––––––––
Analyzed: ADRIANO CELENTANO / Deus (Italy, CLAN, CLN 20262)
––––––––––––––––––––––––––––––––––––––––

DR Peak RMS Duration Track
––––––––––––––––––––––––––––––––––––––––
DR11 -0.50 dB -14.99 dB 5:41 01-Deus
DR11 -0.10 dB -12.12 dB 4:23 02-Mi fanno ridere
DR11 -0.10 dB -12.95 dB 2:19 03-Crazy movie
DR11 -0.10 dB -12.46 dB 3:45 04-Quando
DR10 -0.19 dB -12.50 dB 7:12 05-L’artigiano
DR12 0.00 dB -14.79 dB 2:35 06-L’estate e giaВ  qua
DR9 -0.10 dB -10.74 dB 3:23 07-Dove Vai Jack?
DR9 -0.10 dB -10.78 dB 2:22 08-L’ora del rock
––––––––––––––––––––––––––––––––––––––––

Number of tracks: 8
Official DR value: DR11

Samplerate: 44100 Hz
Channels: 2
Bits per sample: 16
Bitrate: 932 kbps
Codec: FLAC

CUETools Log
[CUETools log; Date: 10.02.2017 23:41:24; Version: 2.1.4]
[CTDB TOCID: B2HYJ5kv2ituXQS56ZPVE1BG3SQ-] found.
Track | CTDB Status
1 | (1/2) Accurately ripped
2 | (1/2) Accurately ripped
3 | (1/2) Accurately ripped
4 | (1/2) Accurately ripped
5 | (1/2) Accurately ripped
6 | (1/2) Accurately ripped
7 | (1/2) Accurately ripped
8 | (1/2) Accurately ripped
[AccurateRip ID: 000a9c9b-00458e4c-5f076c08] found.
Track [ CRC | V2 ] Status
01 [55d7fb14|3d072817] (2+0/2) Accurately ripped
02 [0e8d497f|b1cc1835] (2+0/2) Accurately ripped
03 [9a9d5789|0e5584c6] (2+0/2) Accurately ripped
04 [7af3fa13|f8c6cc98] (2+0/2) Accurately ripped
05 [cb60f978|869d4858] (2+0/2) Accurately ripped
06 [dda31bb2|cc82a46a] (2+0/2) Accurately ripped
07 [e9fb9bfc|0af15580] (2+0/2) Accurately ripped
08 [e957da31|90cf69ed] (2+0/2) Accurately ripped

Track Peak [ CRC32 ] [W/O NULL] [ LOG ]
– 99,9 [005A6D1C] [71236DFB] CRC32
01 94,4 [9ED993DC] [EE31B4B0]
02 98,8 [0CDE6A8E] [61291A50]
03 98,8 [0A1CF871] [5AC4D501]
04 98,8 [13C4555B] [378C4A87]
05 97,8 [CB436207] [D2B636C3]
06 99,9 [30F1B279] [E4BA9C28]
07 98,8 [C63A43C1] [45E932F6]
08 98,8 [9432433A] [F18F2BC2]

Adriano Celentano - Deus (1981)

All thanks go to the original releaser

Adriano Celentano in my Blog

Download Adriano Celentano – Deus (1981):

Adriano Celentano – Deus (1981) Download, Warez, DDL, Free, Full Album, Torrent, Legal.

Download