Adriano Batolba Orchestra – 13 Renegades (2016)

Download
Adriano Batolba Orchestra - 13 Renegades (2016)

Adriano Batolba Orchestra – 13 Renegades (2016)
EAC Rip | FLAC (Img) + Cue + Log ~ 333 Mb | MP3 CBR320 ~ 115 Mb
Scans (PNG, 400 dpi) ~ 122 Mb | RAR 5% Recovery
Rockabilly, Jazz, Swing | ToBaGo Records / Rough Trade #TBR 004

3 Trumpets + 4 Saxophones + 3 Trombones + Drums & Bass + a man and his guitar = the Adriano BaTolba Orchestra.

A lifelong dream has come true for Adriano BaTolba. While working with Dick Brave & the Backbeats he was already nurturing the idea of Germany’s only, if not Europe’s only Rockabilly big band. For Adriano this seemed like the perfect way to marry his background in Jazz with his passion for Rockabilly.

Through his vast experience as a producer and performer BaTolba had become acquainted with just about every brass section of note in Germany and all it took was a few phone calls to get the top cats in the game to jump on board. (Some of these guys had already worked with the likes of Anastacia, Shirley Bassey, Michael Buble, Joe Cocker, Falco, David Garrett, Lionel Richie, Seal and Dionne Warwick).

A project of this scope however, took some time to gel and the music world had to wait until December 2009 for the „ABO“ to tread the boards together for the first time, and so was born the ‚Adriano BaTolba Orchestra‘!

Adriano Batolba Orchestra - 13 Renegades (2016)

Right from the outset this band wanted to stand out from the crowd. They didn’t want to rest on their laurels and just churn out classics & standards so the first recording sessions featured some kickin‘ originals to rival the evergreen favourites. The band succeeded in seamlessly fusing the styles of Rockabilly, Jazz, Swing and Jive with arrangements so sassy, every cat in the house would be swinging in no time! They also managed to poach numbers from unexpected musical genres like Rock, Pop and Country and give ‚em an „ABO“ makeover.

As soon as the word got out the ABO were hot property and 2011-2012 turned into a non-stop Rockabilly roller coaster for the band. Late Night German TV Legend, Harald Schmidt and top comic Atze Schröder both invited the Adriano BaTolba Orchestra to guest on their shows. In the wake of this followed a tour through Germany, many more radio and TV appearances and ultimately leading to high profile festival spots including Leverkusen Jazztage, Eutin Bluesfest and NDR 90,3 Hamburg Sounds. The band elicited a euphoric response wherever they roamed and continue to do so today! In 2015 the A.B.O. finished recordings for its first (studio) CD „13 Renegades“, released in Spring 2016 on TOBAGO Records.

The Adriano BaTolba Orchestra is a 13 piece high octane fuelled, Rockabilly Cadillac that’s tuned and ready to burn up the dance floor and get every head in the house hoppin‘!

Adriano Batolba Orchestra - 13 Renegades (2016)

Official Website | Discogs | All Music

***************

Adriano Batolba Orchestra - 13 Renegades (2016)

Track List:

01. Ride It Like You Stole It [4:00]
02. Right Time For Love [2:46]
03. Up The Line [4:00]
04. Jean, Jean, Jeannie [3:43]
05. Hard Luck, Bad Luck ‘n’ Misery [2:51]
06. One Minute To One [2:47]
07. Shame, Shame, Shame [4:02]
08. The Bomb [4:04]
09. Fever [3:45]
10. Cotton Eyed Joe [3:56]
11. Harlem Nocturne [4:07]
12. Turn It Loose [3:23]
13. Nothin’ To Write Home About [4:24]

EAC Log
Exact Audio Copy V1.0 beta 3 from 29. August 2011

EAC extraction logfile from 23. December 2016, 21:51

Adriano Batolba Orchestra (A.B.O.) / 13 Renegades

Used drive : PIONEER BD-RW BDR-TD03 Adapter: 0 ID: 1

Read mode : Secure
Utilize accurate stream : Yes
Defeat audio cache : Yes
Make use of C2 pointers : No

Read offset correction : 667
Overread into Lead-In and Lead-Out : No
Fill up missing offset samples with silence : Yes
Delete leading and trailing silent blocks : No
Null samples used in CRC calculations : Yes
Used interface : Native Win32 interface for Win NT & 2000

Used output format : User Defined Encoder
Selected bitrate : 768 kBit/s
Quality : High
Add ID3 tag : No
Command line compressor : C:Program Files (x86)Exact Audio CopyFLACFLAC.EXE
Additional command line options : -6 -V -T "ARTIST=%artist%" -T "TITLE=%title%" -T "ALBUM=%albumtitle%" -T "DATE=%year%" -T "TRACKNUMBER=%tracknr%" -T "GENRE=%genre%" -T "COMMENT=%comment%" -T "BAND=%albuminterpret%" -T "ALBUMARTIST=%albuminterpret%" -T "COMPOSER=%composer%" %haslyrics%–tag-from-file=LYRICS="%lyricsfile%"%haslyrics% -T "DISCNUMBER=%cdnumber%" -T "TOTALDISCS=%totalcds%" -T "TOTALTRACKS=%numtracks%" %hascover%–picture="%coverfile%"%hascover% %source% -o %dest%

TOC of the extracted CD

Track | Start | Length | Start sector | End sector
––––––––––––––––––––––––––––-
1 | 0:00.00 | 3:59.52 | 0 | 17976
2 | 3:59.52 | 2:46.27 | 17977 | 30453
3 | 6:46.04 | 4:00.13 | 30454 | 48466
4 | 10:46.17 | 3:42.57 | 48467 | 65173
5 | 14:28.74 | 2:51.08 | 65174 | 78006
6 | 17:20.07 | 2:46.52 | 78007 | 90508
7 | 20:06.59 | 4:02.23 | 90509 | 108681
8 | 24:09.07 | 4:04.26 | 108682 | 127007
9 | 28:13.33 | 3:44.62 | 127008 | 143869
10 | 31:58.20 | 3:56.13 | 143870 | 161582
11 | 35:54.33 | 4:07.18 | 161583 | 180125
12 | 40:01.51 | 3:22.48 | 180126 | 195323
13 | 43:24.24 | 4:23.74 | 195324 | 215122

Range status and errors

Selected range

Filename C:UsersDerisDesktopkpnemo.euA.B.O.13Adriano Batolba Orchestra (A.B.O.) – 13 Renegades.wav

Peak level 100.0 %
Extraction speed 4.3 X
Range quality 99.9 %
Test CRC B466E96F
Copy CRC B466E96F
Copy OK

No errors occurred

AccurateRip summary

Track 1 accurately ripped (confidence 1) [EE6E1D68] (AR v2)
Track 2 accurately ripped (confidence 1) [EEF628C2] (AR v2)
Track 3 accurately ripped (confidence 1) [F3E61096] (AR v2)
Track 4 accurately ripped (confidence 1) [27720761] (AR v2)
Track 5 accurately ripped (confidence 1) [EAAFC0D8] (AR v2)
Track 6 accurately ripped (confidence 1) [AC54BCE8] (AR v2)
Track 7 accurately ripped (confidence 1) [32268625] (AR v2)
Track 8 accurately ripped (confidence 1) [3684D230] (AR v2)
Track 9 accurately ripped (confidence 1) [E33C0C24] (AR v2)
Track 10 accurately ripped (confidence 1) [92286061] (AR v2)
Track 11 accurately ripped (confidence 1) [21E0C235] (AR v2)
Track 12 accurately ripped (confidence 1) [6AB38861] (AR v2)
Track 13 accurately ripped (confidence 1) [3D56449F] (AR v2)

All tracks accurately ripped

End of status report

–– CUETools DB Plugin V2.1.3

[CTDB TOCID: XMc35uvqWQc0vPSFv5lTBWD07wk-] found, Submit result: XMc35uvqWQc0vPSFv5lTBWD07wk- has been confirmed
[d7434b34] (3/3) Accurately ripped

==== Log checksum 8C31C2330E9FA18F0E3CB413D56F5705F38108E01EEC8588686FB05C3AB7C52D ====

DR Log
foobar2000 1.2.6 / Dynamic Range Meter 1.1.1
log date: 2016-12-27 21:15:35

––––––––––––––––––––––––––––––––––––––––
Analyzed: Adriano Batolba Orchestra (A.B.O.) / 13 Renegades
––––––––––––––––––––––––––––––––––––––––

DR Peak RMS Duration Track
––––––––––––––––––––––––––––––––––––––––
DR8 -0.08 dB -9.70 dB 4:00 01-Ride It Like You Stole It
DR8 -0.08 dB -10.44 dB 2:46 02-Right Time For Love
DR9 -0.08 dB -10.88 dB 4:00 03-Up The Line
DR9 -0.07 dB -9.79 dB 3:43 04-Jean, Jean, Jeannie
DR9 -0.07 dB -9.74 dB 2:51 05-Hard Luck, Bad Luck ‘n’ Misery
DR10 -0.09 dB -11.45 dB 2:47 06-One Minute To One
DR9 -0.07 dB -9.76 dB 4:02 07-Shame, Shame, Shame
DR9 -0.07 dB -11.25 dB 4:04 08-The Bomb
DR9 -0.08 dB -12.02 dB 3:45 09-Fever
DR9 -0.08 dB -10.13 dB 3:56 10-Cotton Eyed Joe
DR11 -0.08 dB -13.25 dB 4:07 11-Harlem Nocturne
DR9 0.00 dB -10.06 dB 3:23 12-Turn It Loose
DR8 0.00 dB -10.12 dB 4:24 13-Nothin’ To Write Home About
––––––––––––––––––––––––––––––––––––––––

Number of tracks: 13
Official DR value: DR9

Samplerate: 44100 Hz
Channels: 2
Bits per sample: 16
Bitrate: 926 kbps
Codec: FLAC
================================================================================

CUETools Log
[CUETools log; Date: 27.12.2016 21:13:58; Version: 2.1.5]
[CTDB TOCID: XMc35uvqWQc0vPSFv5lTBWD07wk-] found.
Track | CTDB Status
1 | (4/4) Accurately ripped
2 | (4/4) Accurately ripped
3 | (4/4) Accurately ripped
4 | (4/4) Accurately ripped
5 | (4/4) Accurately ripped
6 | (4/4) Accurately ripped
7 | (4/4) Accurately ripped
8 | (4/4) Accurately ripped
9 | (4/4) Accurately ripped
10 | (4/4) Accurately ripped
11 | (4/4) Accurately ripped
12 | (4/4) Accurately ripped
13 | (4/4) Accurately ripped
[AccurateRip ID: 00165020-00e025d3-990b340d] found.
Track [ CRC | V2 ] Status
01 [dcc4ee30|ee6e1d68] (0+1/1) Accurately ripped
02 [ad4688d7|eef628c2] (0+1/1) Accurately ripped
03 [34544147|f3e61096] (0+1/1) Accurately ripped
04 [d8edc36e|27720761] (0+1/1) Accurately ripped
05 [a4b312fd|eaafc0d8] (0+1/1) Accurately ripped
06 [de3c5443|ac54bce8] (0+1/1) Accurately ripped
07 [e732fb2a|32268625] (0+1/1) Accurately ripped
08 [b4be37db|3684d230] (0+1/1) Accurately ripped
09 [aa5deb08|e33c0c24] (0+1/1) Accurately ripped
10 [2cfcd4e3|92286061] (0+1/1) Accurately ripped
11 [af678960|21e0c235] (0+1/1) Accurately ripped
12 [4767a170|6ab38861] (0+1/1) Accurately ripped
13 [0d83d02d|3d56449f] (0+1/1) Accurately ripped

Track Peak [ CRC32 ] [W/O NULL] [ LOG ]
– 100,0 [B466E96F] [BE41DB6A] CRC32
01 99,1 [0A577157] [26470364]
02 99,0 [2D80B83B] [1ED5EC1E]
03 99,1 [CB64D619] [0AF90A03]
04 99,2 [D43ACED4] [755BA030]
05 99,2 [EF91F068] [0B5D26F4]
06 99,0 [3F08163D] [2FCDF189]
07 99,1 [EC9D932B] [0BF29712]
08 99,1 [CFAC5D3C] [E20AC34C]
09 99,0 [ECC12904] [7578EAC1]
10 99,0 [1967787A] [34F6273D]
11 99,0 [4AA116CD] [887C0D00]
12 99,9 [4FF9EABD] [7A5A2A9C]
13 100,0 [2506DE38] [3649EFDB]

Adriano Batolba Orchestra - 13 Renegades (2016)

Adriano Batolba Orchestra - 13 Renegades (2016)

All thanks go to Boris1

> Visit my blog <

Download:

Adriano Batolba Orchestra – 13 Renegades (2016) Download, Warez, DDL, Free, Full Album, Torrent, Legal.

Download