Accept – Russian Roulette (1986) [Japan 1st Press]

Download
Accept - Russian Roulette (1986) [Japan 1st Press]

Accept – Russian Roulette (1986) [Japan 1st Press]
EAC Rip | FLAC: Image+Cue+Log | 306 Mb | MP3 CBR 320 kbps | 127 Mb | Scans | Time: 43:23
EPIC/SONY | 32•8P-137
Heavy Metal

RUSSIAN ROULETTE is the seventh studio album by German heavy metal band Accept, released in 1986. It was again recorded at Dierks-Studios, but the band chose to self-produce rather than bring back Dieter Dierks as producer. It would be the last Accept album to feature Udo Dirkschneider as lead vocalist until the 1993 reunion album Objection Overruled. The album returns Accept to the darker, heavier sound of releases prior to the more commercial-sounding predecessor Metal Heart.

Accept - Russian Roulette (1986) [Japan 1st Press]
Accept
Wikipedia | Amazon
Accept - Russian Roulette (1986) [Japan 1st Press]

Track Listing

01. T.V. War (03:27)
02. Monsterman (03:26)
03. Russian Roulette (05:23)
04. It’s Hard To Find A Way (04:20)
05. Aiming High (04:27)
06. Heaven Is Hell (07:13)
07. Another Second To Be (03:19)
08. Walking In The Shadow (04:27)
09. Man Enough To Cry (03:15)
10. Stand Tight (04:07)

Produced by Accept

The Band

• Udo Dirkschneider – vocals
• Wolf Hoffmann – guitar
• Jörg Fischer – rhythm guitar
• Peter Baltes – bass
• Stefan Kaufmann – drums

Notes

The very first japanese CD pressing and probably the very first CD pressing of this album.

EAC Log
Exact Audio Copy V0.99 prebeta 5 from 4. May 2009

EAC extraction logfile from 11. November 2013, 11:23

Accept / Russian Roulette (32.8P-137)

Used drive : PLEXTOR DVDR PX-760A Adapter: 0 ID: 0

Read mode : Secure
Utilize accurate stream : Yes
Defeat audio cache : Yes
Make use of C2 pointers : No

Read offset correction : 30
Overread into Lead-In and Lead-Out : No
Fill up missing offset samples with silence : Yes
Delete leading and trailing silent blocks : No
Null samples used in CRC calculations : Yes
Used interface : Native Win32 interface for Win NT & 2000

Used output format : User Defined Encoder
Selected bitrate : 1024 kBit/s
Quality : High
Add ID3 tag : No
Command line compressor : C:Program Files (x86)Exact Audio CopyFlacflac.exe
Additional command line options : -8 -V %s

TOC of the extracted CD

Track | Start | Length | Start sector | End sector
––––––––––––––––––––––––––––-
1 | 0:00.00 | 3:27.02 | 0 | 15526
2 | 3:27.02 | 3:25.60 | 15527 | 30961
3 | 6:52.62 | 5:22.63 | 30962 | 55174
4 | 12:15.50 | 4:19.40 | 55175 | 74639
5 | 16:35.15 | 4:26.70 | 74640 | 94659
6 | 21:02.10 | 7:12.65 | 94660 | 127124
7 | 28:15.00 | 3:19.27 | 127125 | 142076
8 | 31:34.27 | 4:27.15 | 142077 | 162116
9 | 36:01.42 | 3:14.38 | 162117 | 176704
10 | 39:16.05 | 4:06.55 | 176705 | 195209

Range status and errors

Selected range

Filename D:bigggwestAccept – Russian Roulette (32.8P-137).wav

Peak level 81.2 %
Range quality 100.0 %
Test CRC A3D0BF41
Copy CRC A3D0BF41
Copy OK

No errors occurred

AccurateRip summary

Track 1 cannot be verified as accurate (confidence 2) [3F38D176], AccurateRip returned [ABE4F0E6]
Track 2 cannot be verified as accurate (confidence 2) [081FD888], AccurateRip returned [A9C1CC57]
Track 3 cannot be verified as accurate (confidence 2) [C98BE8E3], AccurateRip returned [C718FFA3]
Track 4 cannot be verified as accurate (confidence 2) [9E379C33], AccurateRip returned [6A473BB5]
Track 5 cannot be verified as accurate (confidence 2) [ABBFB36F], AccurateRip returned [F30A692D]
Track 6 cannot be verified as accurate (confidence 2) [C60E898C], AccurateRip returned [8C5C3AB1]
Track 7 cannot be verified as accurate (confidence 2) [450116F6], AccurateRip returned [12FA18CC]
Track 8 cannot be verified as accurate (confidence 2) [81AACC9E], AccurateRip returned [19E78E73]
Track 9 cannot be verified as accurate (confidence 2) [777DA198], AccurateRip returned [2F7951E0]
Track 10 cannot be verified as accurate (confidence 2) [B02ED106], AccurateRip returned [0654D645]

No tracks could be verified as accurate
You may have a different pressing from the one(s) in the database

End of status report

Many thanks to the original uploader: bki71

SEE also:
Accept 1979 Accept [Remastered 2005]
Accept 1980 I’m A Rebel [Remastered 2005]
Accept 1981 Breaker [Remastered 2005]
Accept 1982 Restless And Wild [Remastered 2005]
Accept 1983 Balls To The Wall [Japan 1st Press, 1989]
Accept 1983 Balls To The Wall [Remastered 2002]
Accept 1985 Metal Heart [Japan 1st Press]
Accept 1985 Metal Heart [Remastered 2002]
Accept 1986 Russian Roulette [Remastered 2002]
Accept 1986 A Compilation Of The Best Of Balls To The Wall / Restless & Wild
Accept 1989 Eat The Heat [Remastered 2002]
Accept 1990 Staying A Life (Japanese Ed. 2005, Remastered] 2CD
Accept 1993 Objection Overruled [Remastered 2015]
Accept 1994 Death Row
Accept 1996 Predator
Accept 1997 All Areas – Worldwide [Japan 1st Press]
Accept 1998 The Final Chapter [2CD]
Accept 2002 Metal Blast From The Past [DVD]
Accept 2010 Blood Of The Nations [Japan SHM-CD]
Accept 2010 The Accept Collection [3 CDs, Box Set]
Accept 2014 Blind Rage [Limited Ed., CD+DVD]

Cannon 2012 Burning Love

Crystal Ball 1999 In The Beginning [Japanese Ed.]
Crystal Ball 2015 LifeRider [Limited Ed. Digipak]
Crystal Ball 2016 Deja-Voodoo
Crystal Ball 2016 Deja-Voodoo [Limited Ed. Digipak]

Don Dokken 1990 Up From The Ashes [Japan Ltd. Ed. 1991]

Empire 2006 The Raven Ride [Japanese Ed.]

Herman Frank 2012 Right In The Guts
Herman Frank 2016 The Devil Rides Out [Japanese Ed.]

Mob Rules 2014 Timekeeper – 20th Anniversary Box [3CD + DVD]

Moon’Doc 1995 Moon’Doc [Japanese Ed.]
Moon’Doc 1996 Get Mooned [Japanese Ed.]
Moon’Doc 2000 Realm Of Legends

PowerWorld 2008 Powerworld [Japanese Ed.]
PowerWorld 2010 Human Parasite
PowerWorld 2013 Cybersteria

U.D.O. 2007 Metallized
U.D.O. 2012 Live In Sofia [DVD + 2CD]
U.D.O. 2013 Steelhammer [Limited Ed.]
U.D.O. 2013 Steelhammer [Japanese Ed.]
U.D.O. 2015 Decadent [Limited Ed.]

……
Welcome to My Blog for more wonderful music!
……

Accept – Russian Roulette (1986) [Japan 1st Press] Download, Warez, DDL, Free, Full Album, Torrent, Legal.

Download