Academia Allegro Vivo (Bijan Khadem-Missagh, Tanze Europas) [2003]

Download
Academia Allegro Vivo (Bijan Khadem-Missagh, Tanze Europas) [2003]

Academia Allegro Vivo (Bijan Khadem-Missagh, Tanze Europas)
(Schubert, Respighi, Saint-Saens, Wieniawski, Reger, Chopin, Delibes, Grieg, Moszkowski/Мошковский, Dvorak, Bartok) [2003]

EAC Rip | FLAC, IMG+CUE, LOG | Covers | 1cd, 365 MB
Classical | Label: ORF | Catalog Number: CD335 | TT: 76’59

Die Academia Allegro Vivo wurde vom Geiger Bijan Khadem-Missagh gegründet. Vom Barock über die Klassik und Romantik bis zur Moderne reicht das Repertoire, mit zyklischen Schwerpunkten wie der Wiener Klassik, der Musik des Donauraumes um 1900, oder dem Thema "Kulturelle Metamorphosen", bei dem die Musiktradition Europas in Beziehung zu der Musik anderer Kontinente gesetzt wird.

Performer:
Bijan Khadem-Missagh
Tanze Europas

Tracklisting:
01. Schubert. Atzenbrugger Tänze D 145 06:19
02. Respighi. Antiche Danze ed Arie, 3. Suite – 1. Satz: Italiana 03:04
03. 2. Satz: Aria di corte 07:26
04. 3. Satz: Siciliana 03:16
05. 4. Satz: Passacaglia 04:18
06. Saint-Saens. Introduktion und Rondo Capriccioso op. 28 09:39
07. Wieniawski. Mazurka op. 19/1 für Violine und Streicher 02:56
08. Schubert. Deutsche Tänze D90 13:04
09. Reger. Walzer E-Dur op. 22/1 02:11
10. Chopin. Mazurka C-Dur op. 67/3 01:28
11. Delibes. Walzer der Puppe aus "Coppelia" 02:06
12. Grieg. Walzer a-Moll op. 12/2 02:08
13. Moszkowski. Romance sans paroles op. 77/3 01:53
14. Spanischer Tanz op. 12/1 01:43
15. Spanischer Tanz op. 12/5 02:32
16. Spanischer Tanz op. 12/2 03:23
17. Dvorák. Walzer A-Dur op. 54/1 03:30
18. Bartók. Rumänische Volkstänze 06:32

LOG
Exact Audio Copy V1.0 beta 3 from 29. August 2011

EAC extraction logfile from 7. March 2014, 6:16

Bijan Khadem-Missagh / Tanze Europas, Academia Allegro Vivo

Used drive : ATAPI iHAS122 C Adapter: 0 ID: 0

Read mode : Secure
Utilize accurate stream : Yes
Defeat audio cache : Yes
Make use of C2 pointers : No

Read offset correction : 6
Overread into Lead-In and Lead-Out : No
Fill up missing offset samples with silence : Yes
Delete leading and trailing silent blocks : No
Null samples used in CRC calculations : Yes
Used interface : Native Win32 interface for Win NT & 2000

Used output format : User Defined Encoder
Selected bitrate : 192 kBit/s
Quality : High
Add ID3 tag : No
Command line compressor : C:Program FilesExact Audio CopyFlacflac.exe
Additional command line options : -V -8 -T "Date=%year%" -T "Genre=%genre%" %source%

TOC of the extracted CD

Track | Start | Length | Start sector | End sector
––––––––––––––––––––––––––––-
1 | 0:00.00 | 6:19.02 | 0 | 28426
2 | 6:19.02 | 3:04.22 | 28427 | 42248
3 | 9:23.24 | 7:25.73 | 42249 | 75696
4 | 16:49.22 | 3:15.41 | 75697 | 90362
5 | 20:04.63 | 4:18.10 | 90363 | 109722
6 | 24:22.73 | 9:39.18 | 109723 | 153165
7 | 34:02.16 | 2:56.24 | 153166 | 166389
8 | 36:58.40 | 13:03.40 | 166390 | 225154
9 | 50:02.05 | 2:11.34 | 225155 | 235013
10 | 52:13.39 | 1:28.03 | 235014 | 241616
11 | 53:41.42 | 2:05.70 | 241617 | 251061
12 | 55:47.37 | 2:08.12 | 251062 | 260673
13 | 57:55.49 | 1:53.26 | 260674 | 269174
14 | 59:49.00 | 1:43.15 | 269175 | 276914
15 | 61:32.15 | 2:31.50 | 276915 | 288289
16 | 64:03.65 | 3:22.61 | 288290 | 303500
17 | 67:26.51 | 3:29.59 | 303501 | 319234
18 | 70:56.35 | 6:32.37 | 319235 | 348671

Range status and errors

Selected range

Filename C:Program FilesExact Audio CopyFlacBijan Khadem-Missagh – Tanze Europas, Academia Allegro Vivo.wav

Peak level 100.0 %
Extraction speed 3.8 X
Range quality 99.9 %
Test CRC 7FC8FB93
Copy CRC 7FC8FB93
Copy OK

No errors occurred

AccurateRip summary

Track 1 accurately ripped (confidence 1) [3D82155C] (AR v2)
Track 2 accurately ripped (confidence 1) [1F90774B] (AR v2)
Track 3 accurately ripped (confidence 1) [47F096C4] (AR v2)
Track 4 accurately ripped (confidence 1) [9A9859AD] (AR v2)
Track 5 accurately ripped (confidence 1) [EE1FEAD7] (AR v2)
Track 6 accurately ripped (confidence 1) [7F1D48BA] (AR v2)
Track 7 accurately ripped (confidence 1) [D8C528D3] (AR v2)
Track 8 accurately ripped (confidence 1) [83DEA32D] (AR v2)
Track 9 accurately ripped (confidence 1) [E0D5B0CC] (AR v2)
Track 10 accurately ripped (confidence 1) [43203988] (AR v2)
Track 11 accurately ripped (confidence 1) [EF94E0FA] (AR v2)
Track 12 accurately ripped (confidence 1) [CB2A41D5] (AR v2)
Track 13 accurately ripped (confidence 1) [92D05F6F] (AR v2)
Track 14 accurately ripped (confidence 1) [0552C0C2] (AR v2)
Track 15 accurately ripped (confidence 1) [EC11915E] (AR v2)
Track 16 accurately ripped (confidence 1) [FDD6F3DF] (AR v2)
Track 17 accurately ripped (confidence 1) [1B1567C1] (AR v2)
Track 18 accurately ripped (confidence 1) [2B0232BF] (AR v2)

All tracks accurately ripped

End of status report

==== Log checksum 3163971827C89C638334E7A75F79D58558DB2869F512389AB23D1708F7FC4BF4 ====

Academia Allegro Vivo (Bijan Khadem-Missagh, Tanze Europas) [2003] Download, Warez, DDL, Free, Full Album, Torrent, Legal.

Download