808 State/UB40 – One In Ten (US CD5) (1992) {ZTT/Tommy Boy}

Download
808 State/UB40 - One In Ten (US CD5) (1992) {ZTT/Tommy Boy}

808 State/UB40 – One In Ten (US CD5) (1992) {ZTT/Tommy Boy}
EAC Rip | FLAC with CUE and log | scans | 124 mb
MP3 CBR 320kbps | RAR | 46 mb
Genre: techno, electronic, dance

"One In Ten" is a collaborative single between British techno group 808 State and reggae band UB40. Released by ZTT in conjunction with Tommy Boy Records, this features five different mixes of the song.

808 State/UB40 - One In Ten (US CD5) (1992) {ZTT/Tommy Boy}

1. One In Ten (808 7")
2. One In Ten (808 Original Mix)
3. One In Ten (Fast Fon Mix)
4. One In Ten (UB40 Vocal)
5. One In Ten (UB40 Instrumental)

Produced by 808 State
Engineered by Al Fisch
Recorded & mixed at Fon Studios

EAC Log
Exact Audio Copy V1.1 from 23. June 2015

EAC extraction logfile from 31. January 2017, 11:30

808 State/UB40 / One In Ten (US CD5)

Used drive : TEAC DVD-ROM DV-28SW Adapter: 1 ID: 0

Read mode : Secure
Utilize accurate stream : Yes
Defeat audio cache : Yes
Make use of C2 pointers : No

Read offset correction : 6
Overread into Lead-In and Lead-Out : No
Fill up missing offset samples with silence : Yes
Delete leading and trailing silent blocks : No
Null samples used in CRC calculations : Yes
Used interface : Native Win32 interface for Win NT & 2000
Gap handling : Appended to previous track

Used output format : Internal WAV Routines
Sample format : 44.100 Hz; 16 Bit; Stereo

TOC of the extracted CD

Track | Start | Length | Start sector | End sector
––––––––––––––––––––––––––––-
1 | 0:00.32 | 2:42.00 | 32 | 12181
2 | 2:42.32 | 4:18.00 | 12182 | 31531
3 | 7:00.32 | 3:56.48 | 31532 | 49279
4 | 10:57.05 | 4:01.20 | 49280 | 67374
5 | 14:58.25 | 5:00.60 | 67375 | 89934

Track 1

Filename C:My DocumentsMy FLAC808 State, UB40 – One In Ten (US CD5) (1992) [FLAC] {ZTT, Tommy Boy}1 – One In Ten (808 7”).wav

Pre-gap length 0:00:02.32

Peak level 96.8 %
Extraction speed 2.0 X
Track quality 99.9 %
Test CRC EC7B4E2B
Copy CRC EC7B4E2B
Accurately ripped (confidence 5) [20DACAAF] (AR v2)
Copy OK

Track 2

Filename C:My DocumentsMy FLAC808 State, UB40 – One In Ten (US CD5) (1992) [FLAC] {ZTT, Tommy Boy}2 – One In Ten (808 Original Mix).wav

Pre-gap length 0:00:00.35

Peak level 98.2 %
Extraction speed 2.9 X
Track quality 100.0 %
Test CRC 5732CD75
Copy CRC 5732CD75
Accurately ripped (confidence 5) [C4CF783A] (AR v2)
Copy OK

Track 3

Filename C:My DocumentsMy FLAC808 State, UB40 – One In Ten (US CD5) (1992) [FLAC] {ZTT, Tommy Boy}3 – One In Ten (Fast Fon Mix).wav

Pre-gap length 0:00:00.60

Peak level 98.4 %
Extraction speed 3.2 X
Track quality 100.0 %
Test CRC FAE28B9F
Copy CRC FAE28B9F
Accurately ripped (confidence 5) [260EB106] (AR v2)
Copy OK

Track 4

Filename C:My DocumentsMy FLAC808 State, UB40 – One In Ten (US CD5) (1992) [FLAC] {ZTT, Tommy Boy}4 – One In Ten (UB40 Vocal).wav

Pre-gap length 0:00:01.66

Peak level 98.2 %
Extraction speed 2.6 X
Track quality 100.0 %
Test CRC 94277EE6
Copy CRC 94277EE6
Accurately ripped (confidence 5) [42310BAE] (AR v2)
Copy OK

Track 5

Filename C:My DocumentsMy FLAC808 State, UB40 – One In Ten (US CD5) (1992) [FLAC] {ZTT, Tommy Boy}5 – One In Ten (UB40 Instrumental).wav

Pre-gap length 0:00:00.66

Peak level 98.2 %
Extraction speed 3.4 X
Track quality 99.9 %
Test CRC 491DE049
Copy CRC 491DE049
Accurately ripped (confidence 5) [9D2240A2] (AR v2)
Copy OK

All tracks accurately ripped

No errors occurred

End of status report

–– CUETools DB Plugin V2.1.6

[CTDB TOCID: AEYErPtO9JtsjxSyV0vSwHVryQk-] found
Submit result: AEYErPtO9JtsjxSyV0vSwHVryQk- has been confirmed
Track | CTDB Status
1 | (2/2) Accurately ripped
2 | (2/2) Accurately ripped
3 | (2/2) Accurately ripped
4 | (2/2) Accurately ripped
5 | (2/2) Accurately ripped

==== Log checksum 83D5A3EA8ABF0D63EC1527D836A1B79CC34B419ACCB758C9DF4FCD2884386A4E ====

808 State/UB40 - One In Ten (US CD5) (1992) {ZTT/Tommy Boy}

808 State/UB40 – One In Ten (US CD5) (1992) {ZTT/Tommy Boy} Download, Warez, DDL, Free, Full Album, Torrent, Legal.

Download