808 State – Lift (US CD5) (1991) {ZTT/Tommy Boy}

Download
808 State - Lift (US CD5) (1991) {ZTT/Tommy Boy}

808 State – Lift (US CD5) (1991) {ZTT/Tommy Boy}
EAC Rip | FLAC with CUE and log | scans | 262 mb
MP3 CBR 320kbps | RAR | 92 mb
Genre: techno, electronic, dance

"Lift" is the 1991 single by British electronic group 808 State. Released by ZTT in coordination with Tommy Boy, this was in support of their album ex:el and features six mixes of the single plus two mixes of "Open Your Mind", a song not on the original album.

808 State - Lift (US CD5) (1991) {ZTT/Tommy Boy}

1. Lift (LP Version)
2. Lift (7" Mix)
3. Lift (12" Mix)
4. Open Your Mind (Sound Garden Mix)
5. Lift (Justin Strauss Remix)
6. Lift (Metro Mix)
7. Lift (Lift Up Dub)
8. Open Your Mind (Open Mix)

Eric Kupper-keyboards (track 5)
Justin Strauss-drums & percussion (track 5)

Produced by 808 State
Engineered b Michael Haas
Additional engineering: Darren Tidsey
Addotional production and remix by Justin Strauss (track 5)
Remix engineer: Frank Heller (track 5)
Todd Culver-editor (track 5)
Shaun James-overdub engineer (track 5)

EAC Log
Exact Audio Copy V1.1 from 23. June 2015

EAC extraction logfile from 31. January 2017, 9:24

808 State / Lift (US CD5)

Used drive : TEAC DVD-ROM DV-28SW Adapter: 1 ID: 0

Read mode : Secure
Utilize accurate stream : Yes
Defeat audio cache : Yes
Make use of C2 pointers : No

Read offset correction : 6
Overread into Lead-In and Lead-Out : No
Fill up missing offset samples with silence : Yes
Delete leading and trailing silent blocks : No
Null samples used in CRC calculations : Yes
Used interface : Native Win32 interface for Win NT & 2000
Gap handling : Appended to previous track

Used output format : Internal WAV Routines
Sample format : 44.100 Hz; 16 Bit; Stereo

TOC of the extracted CD

Track | Start | Length | Start sector | End sector
––––––––––––––––––––––––––––-
1 | 0:00.32 | 5:15.00 | 32 | 23656
2 | 5:15.32 | 3:27.00 | 23657 | 39181
3 | 8:42.32 | 4:42.45 | 39182 | 60376
4 | 13:25.02 | 4:31.30 | 60377 | 80731
5 | 17:56.32 | 6:50.68 | 80732 | 111549
6 | 24:47.25 | 4:50.65 | 111550 | 133364
7 | 29:38.15 | 6:45.17 | 133365 | 163756
8 | 36:23.32 | 4:52.08 | 163757 | 185664

Track 1

Filename C:My DocumentsMy FLAC808 State – Lift (US CD5) (1991) [FLAC] {ZTT, Tommy Boy}1 – Lift (LP Version).wav

Pre-gap length 0:00:02.32

Peak level 100.0 %
Extraction speed 2.9 X
Track quality 100.0 %
Test CRC 42DAF5A7
Copy CRC 42DAF5A7
Accurately ripped (confidence 3) [EAEFFD15] (AR v2)
Copy OK

Track 2

Filename C:My DocumentsMy FLAC808 State – Lift (US CD5) (1991) [FLAC] {ZTT, Tommy Boy}2 – Lift (7” Mix).wav

Pre-gap length 0:00:01.65

Peak level 97.6 %
Extraction speed 3.1 X
Track quality 100.0 %
Test CRC 31BA391A
Copy CRC 31BA391A
Accurately ripped (confidence 2) [E19109E5] (AR v2)
Copy OK

Track 3

Filename C:My DocumentsMy FLAC808 State – Lift (US CD5) (1991) [FLAC] {ZTT, Tommy Boy}3 – Lift (12” Mix).wav

Pre-gap length 0:00:02.37

Peak level 99.2 %
Extraction speed 3.6 X
Track quality 100.0 %
Test CRC F02997D0
Copy CRC F02997D0
Accurately ripped (confidence 2) [3C7C77A0] (AR v2)
Copy OK

Track 4

Filename C:My DocumentsMy FLAC808 State – Lift (US CD5) (1991) [FLAC] {ZTT, Tommy Boy}4 – Open Your Mind (Sound Garden Mix).wav

Pre-gap length 0:00:03.17

Peak level 100.0 %
Extraction speed 3.8 X
Track quality 100.0 %
Test CRC 039DE35E
Copy CRC 039DE35E
Accurately ripped (confidence 2) [C50646AD] (AR v2)
Copy OK

Track 5

Filename C:My DocumentsMy FLAC808 State – Lift (US CD5) (1991) [FLAC] {ZTT, Tommy Boy}5 – Lift (Justin Strauss Remix).wav

Pre-gap length 0:00:02.45

Peak level 99.8 %
Extraction speed 3.1 X
Track quality 100.0 %
Test CRC 6543DFDF
Copy CRC 6543DFDF
Accurately ripped (confidence 3) [1497A719] (AR v2)
Copy OK

Track 6

Filename C:My DocumentsMy FLAC808 State – Lift (US CD5) (1991) [FLAC] {ZTT, Tommy Boy}6 – Lift (Metro Mix).wav

Pre-gap length 0:00:02.50

Peak level 70.9 %
Extraction speed 4.2 X
Track quality 100.0 %
Test CRC 326EBEB6
Copy CRC 326EBEB6
Accurately ripped (confidence 3) [44595537] (AR v2)
Copy OK

Track 7

Filename C:My DocumentsMy FLAC808 State – Lift (US CD5) (1991) [FLAC] {ZTT, Tommy Boy}7 – Lift (Lift Up Dub).wav

Pre-gap length 0:00:02.68

Peak level 77.8 %
Extraction speed 3.7 X
Track quality 100.0 %
Test CRC 4DD29CDB
Copy CRC 4DD29CDB
Accurately ripped (confidence 3) [4C9FDDBC] (AR v2)
Copy OK

Track 8

Filename C:My DocumentsMy FLAC808 State – Lift (US CD5) (1991) [FLAC] {ZTT, Tommy Boy}8 – Open Your Mind (Open Mix).wav

Pre-gap length 0:00:02.70

Peak level 86.6 %
Extraction speed 1.7 X
Track quality 99.8 %
Test CRC 234622B2
Copy CRC 9E3C59AA
Cannot be verified as accurate (confidence 9) [1C5268EC], AccurateRip returned [1A990BFC] (AR v2)
Copy OK

7 track(s) accurately ripped
1 track(s) could not be verified as accurate

Some tracks could not be verified as accurate

No errors occurred

End of status report

–– CUETools DB Plugin V2.1.6

[CTDB TOCID: XAtNUB_ktPxzTbT62qKgj_JAPYI-] found
Submit result: insufficient quality
Track | CTDB Status
1 | (4/4) Accurately ripped
2 | (4/4) Accurately ripped
3 | (4/4) Accurately ripped
4 | (4/4) Accurately ripped
5 | (4/4) Accurately ripped
6 | (4/4) Accurately ripped
7 | (4/4) Accurately ripped
8 | (4/4) Differs in 122 samples @00:38:49-00:38:50,00:39:22,00:40:73-00:40:74
If you are sure that your rip contains errors, you can use CUETools to repair it.

==== Log checksum 96CA92A2D4AD96FEA4FD8EF2AFB94633570C9827E0F14F126497BC73A95DD305 ====

808 State - Lift (US CD5) (1991) {ZTT/Tommy Boy}

808 State – Lift (US CD5) (1991) {ZTT/Tommy Boy} Download, Warez, DDL, Free, Full Album, Torrent, Legal.

Download