3rd Force – Global Force (2016)

Download
3rd Force - Global Force (2016)

3rd Force – Global Force (2016)
EAC | FLAC | Image (Cue&Log) ~ 313 Mb | Mp3 (CBR320) ~ 120 Mb | Scans included
Smooth Jazz, New Age | Label: Baja/TSR | # BCD-557 | Time: 00:47:02

The new 3rd Force album ‘Global Force’ is the first release by the group in over 10 years. Formally signed to Higher Octave Records from 1994 through 2005 their previous 4 groundbreaking recordings-whose titles all incorporated the ‘force’ concept, a la ‘Force of Nature’, ‘Vital Force’, ‘Gentle Force’ and ‘Driving Force’ scored them numerous hit singles and strong sales. Multi-instrumentalists and sonic architects William Aura and Craig Dobbin are the foundation of the 3rd Force sound with special guests including Alain Eskinasi (keys, guitars, beats) Brian Hughes (electric guitar) Lawson Rollins (flamenco guitar) Derrick Edmonson (sax) Mitch Manker (trumpet) Brian Mann (accordion) Peter Sterling (harp) and popular Nepali supergroup Kutumba (various instruments).

What a fantastic way to roll out 2016… the Force has truly awakened with the first recording from the compelling contemporary jazz project 3RD Force in more than ten years! Sonic architects, William Aura and Craig Dobbin return with a GLOBAL FORCE. Both artists have spent the past decade involved in musical and cultural endeavors, including global activism through organizations with the mission to bring peace and progress to the world through music. Their exciting and eloquent new release opens a dynamic, new chapter for the duo in a global music paradigm. There was a natural and organic approach taken on GLOBAL FORCE – The concept was to create an album for artistic reward rather than corporate expectations… and the result is extraordinary (amazing how that works). A rich and textured soundtrack for music fans who crave something a little more for their ears than conventional. In addition to juicy rhythms and seductive saxophone, you’ll hear delightful contributions from special guests Lawson Rollins, Brian Hughes and members from the popular Nepali supergroup Kutumba. Download now… and let the Force be with you!

Review by Sandy Shore, SmoothJazz.com

3rd Force at Allmusic
3rd Force Website
3rd Force at Wiki

Tracklist:

01. Big Shot (4:24)
02. Breakout (4:38)
03. Carry On (4:40)
04. Compassion Passion (4:27)
05. Day Into Night (4:10)
06. Follow Me Home (5:27)
07. Out Of The Storm (5:01)
08. Shadow of Love (4:56)
09. You Are The One (4:53)
10. We’ll Be Together (4:27)

EAC log
Exact Audio Copy V1.3 from 2. September 2016

Отчёт EAC об извлечении, выполненном 29. июня 2017, 20:51

3rd Force / Global Force

Дисковод: Optiarc DVD RW AD-7263S Adapter: 1 ID: 2

Режим чтения : Достоверность
Использование точного потока : Да
Отключение кэша аудио : Нет
Использование указателей C2 : Нет

Коррекция смещения при чтении : 48
Способность читать области Lead-in и Lead-out : Нет
Заполнение пропущенных сэмплов тишиной : Да
Удаление блоков с тишиной в начале и конце : Нет
При вычислениях CRC использовались нулевые сэмплы : Да
Интерфейс : Встроенный Win32-интерфейс для Win NT/2000

Выходной формат : Пользовательский кодировщик
Выбранный битрейт : 768 kBit/s
Качество : Высокий
Добавление ID3-тега : Нет
Утилита сжатия : C:Program Files (x86)Exact Audio CopyFLACFLAC.EXE
Дополнительные параметры : -6 -V -T "ARTIST=%artist%" -T "TITLE=%title%" -T "ALBUM=%albumtitle%" -T "DATE=%year%" -T "TRACKNUMBER=%tracknr%" -T "GENRE=%genre%" -T "COMMENT=%comment%" -T "BAND=%albuminterpret%" -T "ALBUMARTIST=%albuminterpret%" -T "COMPOSER=%composer%" %haslyrics%–tag-from-file=LYRICS="%lyricsfile%"%haslyrics% -T "DISCNUMBER=%cdnumber%" -T "TOTALDISCS=%totalcds%" -T "TOTALTRACKS=%numtracks%" %hascover%–picture="%coverfile%"%hascover% %source% -o %dest%

TOC извлечённого CD

Трек | Старт | Длительность | Начальный сектор | Конечный сектор
––––––––––––––––––––––––––––––––––-
1 | 0:00.00 | 4:24.21 | 0 | 19820
2 | 4:24.21 | 4:38.16 | 19821 | 40686
3 | 9:02.37 | 4:39.69 | 40687 | 61680
4 | 13:42.31 | 4:26.53 | 61681 | 81683
5 | 18:09.09 | 4:10.00 | 81684 | 100433
6 | 22:19.09 | 5:26.43 | 100434 | 124926
7 | 27:45.52 | 5:00.68 | 124927 | 147494
8 | 32:46.45 | 4:55.48 | 147495 | 169667
9 | 37:42.18 | 4:52.40 | 169668 | 191607
10 | 42:34.58 | 4:27.30 | 191608 | 211662

Характеристики диапазона извлечения и сообщения об ошибках

Выбранный диапазон

Имя файла G:Audiofor HDD media-103rd Force3rd Force – 2016 – Global Force3rd Force – Global Force.wav

Пиковый уровень 98.8 %
Скорость извлечения 6.4 X
Качество диапазона 100.0 %
CRC копии 2DB0DD26
Копирование… OK

Ошибок не произошло

Конец отчёта

–– CUETools DB Plugin V2.1.6

[CTDB TOCID: X24hyF2YIk0DyTnEesl2J686u1k-] found
Submit result: X24hyF2YIk0DyTnEesl2J686u1k- has been confirmed
Track | CTDB Status
1 | (7/7) Accurately ripped
2 | (7/7) Accurately ripped
3 | (7/7) Accurately ripped
4 | (7/7) Accurately ripped
5 | (7/7) Accurately ripped
6 | (7/7) Accurately ripped
7 | (7/7) Accurately ripped
8 | (7/7) Accurately ripped
9 | (7/7) Accurately ripped
10 | (7/7) Accurately ripped

AR log
[CUETools log; Date: 10.07.2017 18:51:13; Version: 2.1.4]
[CTDB TOCID: X24hyF2YIk0DyTnEesl2J686u1k-] found.
Track | CTDB Status
1 | (8/8) Accurately ripped
2 | (8/8) Accurately ripped
3 | (8/8) Accurately ripped
4 | (8/8) Accurately ripped
5 | (8/8) Accurately ripped
6 | (8/8) Accurately ripped
7 | (8/8) Accurately ripped
8 | (8/8) Accurately ripped
9 | (8/8) Accurately ripped
10 | (8/8) Accurately ripped
[AccurateRip ID: 00118ae4-008d1266-8b0b060a] disk not present in database.

Track Peak [ CRC32 ] [W/O NULL] [ LOG ]
– 98,8 [2DB0DD26] [E56D8191] CRC32
01 98,8 [394CB3CF] [C0102249]
02 98,8 [D304C1E8] [9A161502]
03 97,8 [0FFA9CC2] [576D149E]
04 98,8 [9084E83A] [57901316]
05 97,9 [80ADD051] [4F53031B]
06 97,0 [8A850043] [87E4B19B]
07 98,8 [299D17AD] [CD6C4A40]
08 98,8 [377B7B21] [C4364A9D]
09 98,8 [8795B93C] [1345AB83]
10 98,8 [3C95F056] [9CD43238]

DR log
foobar2000 1.2 / Dynamic Range Meter 1.1.1
log date: 2017-07-10 18:48:56

––––––––––––––––––––––––––––––––––––––––
Analyzed: 3rd Force / Global Force
––––––––––––––––––––––––––––––––––––––––

DR Peak RMS Duration Track
––––––––––––––––––––––––––––––––––––––––
DR8 -0.10 dB -9.54 dB 4:24 01-Big Shot
DR8 -0.10 dB -10.27 dB 4:38 02-Breakout
DR9 -0.19 dB -11.33 dB 4:40 03-Carry On
DR8 -0.10 dB -10.13 dB 4:27 04-Compassion Passion
DR8 -0.18 dB -11.13 dB 4:10 05-Day Into Night
DR8 -0.26 dB -10.86 dB 5:27 06-Follow Me Home
DR9 -0.10 dB -10.98 dB 5:01 07-Out Of The Storm
DR9 -0.10 dB -11.14 dB 4:56 08-Shadow of Love
DR9 -0.10 dB -10.73 dB 4:53 09-You Are The One
DR9 -0.10 dB -10.82 dB 4:27 10-We’ll Be Together
––––––––––––––––––––––––––––––––––––––––

Number of tracks: 10
Official DR value: DR9

Samplerate: 44100 Hz
Channels: 2
Bits per sample: 16
Bitrate: 894 kbps
Codec: FLAC
================================================================================

3rd Force - Global Force (2016)

3rd Force - Global Force (2016)

All thanks to original releaser – Lance_Boyle

More interesting music in My Blog

3rd Force – Global Force (2016) Download, Warez, DDL, Free, Full Album, Torrent, Legal.

Download