10,000 Maniacs – Original Album Series (2013) | ViralVideoPk

Daily Dose of Free Downloads

10,000 Maniacs – Original Album Series (2013)

Download

10,000 Maniacs - Original Album Series (2013)

10,000 Maniacs – Original Album Series (2013)
EAC | Flac(Image) + Cue + Log > 1580 Mb | Mp3 CBR 320Kpbs > 579 Mb
Alternative, Folk, Pop Rock | Label: Rhino | Cat. # 8122796838 | 5CD, EU
Scans (Jpg) > 30 Mb | NitroFlare, FileFactory

The five albums collected in this 2013 slipcased box – The Wishing Chair, In My Tribe, Blind Man’s Zoo, Our Time in Eden, and MTV Unplugged – capture 10,000 Maniacs’ work during their Elektra years. 1985 to 1993 represents the group’s most popular and creative peak, and this box is an easy, affordable way to get all the material from that era in one purchase. Each album is presented as a mini-LP housed in a cardboard sleeve as a way to cut down cost and save space.

by Jason Lymangrover, allmusic.com
10,000 Maniacs - Original Album Series (2013)

10,000 Maniacs at wiki | 10,000 Maniacs at discogs | 10,000 Maniacs official website

*********
10,000 Maniacs – Original Album Series at discogs

10,000 Maniacs - Original Album Series (2013)

Tracklist CD01 – 1985. The Wishing Chair:

01. Can’t Ignore The Train (02:43)
02. Scorpio Rising (03:06)
03. Just As The Tide Was A Flowing (02:25)
04. Lilydale (03:11)
05. Back O’ The Moon (03:32)
06. Maddox Table (03:19)
07. The Colonial Wing (04:02)
08. Grey Victory (03:07)
09. Among The Americans (03:07)
10. Everyone A Puzzle Lover (03:17)
11. Cotton Alley (03:23)
12. Daktari (04:23)
13. My Mother The War (03:31)
14. Tension Makes A Tangle (03:33)
15. Arbor Day (02:59)

Converted to Image with CUETools

EAC
Exact Audio Copy V1.0 beta 3 from 29. August 2011

EAC extraction logfile from 11. June 2014, 13:55

10,000 Maniacs / The Wishing Chair CD1

Used drive : PLEXTOR CD-R PREMIUM2 Adapter: 4 ID: 0

Read mode : Secure
Utilize accurate stream : Yes
Defeat audio cache : Yes
Make use of C2 pointers : No

Read offset correction : 30
Overread into Lead-In and Lead-Out : Yes
Fill up missing offset samples with silence : Yes
Delete leading and trailing silent blocks : No
Null samples used in CRC calculations : Yes
Used interface : Native Win32 interface for Win NT & 2000
Gap handling : Appended to previous track

Used output format : User Defined Encoder
Selected bitrate : 1024 kBit/s
Quality : High
Add ID3 tag : No
Command line compressor : C:Program Files (x86)Exact Audio CopyFlacflac.exe
Additional command line options : -8 -V -T "ARTIST=%artist%" -T "TITLE=%title%" -T "ALBUM=%albumtitle%" -T "DATE=%year%" -T "TRACKNUMBER=%tracknr%" -T "TOTALTRACKS=%numtracks%" -T "GENRE=%genre%" -T "ALBUMARTIST=%albumartist%" -T "ALBUM ARTIST=%albumartist%" -T "COMMENT=EAC Secure Mode, Test & Copy, AccurateRip, FLAC -8" %source%

TOC of the extracted CD

Track | Start | Length | Start sector | End sector
––––––––––––––––––––––––––––-
1 | 0:00.00 | 2:44.55 | 0 | 12354
2 | 2:44.55 | 3:13.05 | 12355 | 26834
3 | 5:57.60 | 2:18.40 | 26835 | 37224
4 | 8:16.25 | 3:12.70 | 37225 | 51694
5 | 11:29.20 | 3:32.28 | 51695 | 67622
6 | 15:01.48 | 3:19.22 | 67623 | 82569
7 | 18:20.70 | 4:05.20 | 82570 | 100964
8 | 22:26.15 | 3:07.45 | 100965 | 115034
9 | 25:33.60 | 3:07.33 | 115035 | 129092
10 | 28:41.18 | 3:17.10 | 129093 | 143877
11 | 31:58.28 | 3:23.00 | 143878 | 159102
12 | 35:21.28 | 4:29.45 | 159103 | 179322
13 | 39:50.73 | 3:32.52 | 179323 | 195274
14 | 43:23.50 | 3:32.45 | 195275 | 211219
15 | 46:56.20 | 2:17.45 | 211220 | 221539

Track 1

Filename D:FLAC1 – Can’t Ignore The Train.wav

Pre-gap length 0:00:02.00

Peak level 99.2 %
Extraction speed 1.8 X
Track quality 100.0 %
Test CRC 341812E1
Copy CRC 341812E1
Accurately ripped (confidence 12) [92749DE1] (AR v2)
Copy OK

Track 2

Filename D:FLAC2 – Scorpio Rising.wav

Peak level 100.0 %
Extraction speed 1.9 X
Track quality 100.0 %
Test CRC F921ED7C
Copy CRC F921ED7C
Accurately ripped (confidence 12) [BA0E7551] (AR v2)
Copy OK

Track 3

Filename D:FLAC3 – Just As The Tide Was A Flowing.wav

Peak level 95.9 %
Extraction speed 1.8 X
Track quality 100.0 %
Test CRC 111F8F46
Copy CRC 111F8F46
Accurately ripped (confidence 12) [CD637974] (AR v2)
Copy OK

Track 4

Filename D:FLAC4 – Lilydale.wav

Peak level 96.2 %
Extraction speed 1.8 X
Track quality 100.0 %
Test CRC DCA3D091
Copy CRC DCA3D091
Accurately ripped (confidence 12) [48B50708] (AR v2)
Copy OK

Track 5

Filename D:FLAC5 – Back O The Moon.wav

Peak level 100.0 %
Extraction speed 1.9 X
Track quality 100.0 %
Test CRC A039386D
Copy CRC A039386D
Accurately ripped (confidence 12) [43D919B1] (AR v2)
Copy OK

Track 6

Filename D:FLAC6 – Maddox Table.wav

Peak level 99.4 %
Extraction speed 1.8 X
Track quality 100.0 %
Test CRC 0DEED3F5
Copy CRC 0DEED3F5
Accurately ripped (confidence 12) [1CD75ACE] (AR v2)
Copy OK

Track 7

Filename D:FLAC7 – The Colonial Wing.wav

Peak level 67.2 %
Extraction speed 1.9 X
Track quality 100.0 %
Test CRC D198E74A
Copy CRC D198E74A
Accurately ripped (confidence 12) [E9BBF3DC] (AR v2)
Copy OK

Track 8

Filename D:FLAC8 – Grey Victory.wav

Peak level 100.0 %
Extraction speed 1.8 X
Track quality 100.0 %
Test CRC 756DC871
Copy CRC 756DC871
Accurately ripped (confidence 12) [96BAD622] (AR v2)
Copy OK

Track 9

Filename D:FLAC9 – Among The Americans.wav

Peak level 99.5 %
Extraction speed 1.8 X
Track quality 100.0 %
Test CRC B2E98C51
Copy CRC B2E98C51
Accurately ripped (confidence 12) [48D23892] (AR v2)
Copy OK

Track 10

Filename D:FLAC10 – Everyone A Puzzle Lover.wav

Peak level 97.3 %
Extraction speed 1.8 X
Track quality 100.0 %
Test CRC 8AB9AC26
Copy CRC 8AB9AC26
Accurately ripped (confidence 12) [DA3B294F] (AR v2)
Copy OK

Track 11

Filename D:FLAC11 – Cotton Alley.wav

Peak level 100.0 %
Extraction speed 1.8 X
Track quality 100.0 %
Test CRC 123A8AD2
Copy CRC 123A8AD2
Accurately ripped (confidence 12) [CD9813FF] (AR v2)
Copy OK

Track 12

Filename D:FLAC12 – Daktari.wav

Peak level 81.8 %
Extraction speed 1.8 X
Track quality 99.9 %
Test CRC 89CB998B
Copy CRC 89CB998B
Accurately ripped (confidence 12) [7E01D4C0] (AR v2)
Copy OK

Track 13

Filename D:FLAC13 – My Mother The War.wav

Peak level 97.0 %
Extraction speed 1.8 X
Track quality 100.0 %
Test CRC C3E10144
Copy CRC C3E10144
Accurately ripped (confidence 12) [90E83F93] (AR v2)
Copy OK

Track 14

Filename D:FLAC14 – Tension Makes A Tangle.wav

Peak level 100.0 %
Extraction speed 1.8 X
Track quality 100.0 %
Test CRC 9F7E6FDA
Copy CRC 9F7E6FDA
Accurately ripped (confidence 12) [EBEFAE0F] (AR v2)
Copy OK

Track 15

Filename D:FLAC15 – Arbor Day.wav

Peak level 80.5 %
Extraction speed 1.9 X
Track quality 100.0 %
Test CRC 161DD132
Copy CRC 161DD132
Accurately ripped (confidence 12) [E375CF8F] (AR v2)
Copy OK

All tracks accurately ripped

No errors occurred

End of status report

==== Log checksum 3786979054490644A08407ECFACA7876018361557BA65458356C87E4A82677CE ====

Dynamic Range
foobar2000 1.2.9 / Dynamic Range Meter 1.1.1
log date: 2016-12-29 19:27:44

––––––––––––––––––––––––––––––––––––––––
Analyzed: 10,000 Maniacs / The Wishing Chair CD1
––––––––––––––––––––––––––––––––––––––––

DR Peak RMS Duration Track
––––––––––––––––––––––––––––––––––––––––
DR13 -0.07 dB -15.19 dB 2:45 01-Can’t Ignore The Train
DR13 0.00 dB -13.95 dB 3:13 02-Scorpio Rising
DR12 -0.36 dB -14.46 dB 2:19 03-Just As The Tide Was A Flowing
DR13 -0.33 dB -16.02 dB 3:13 04-Lilydale
DR13 0.00 dB -14.93 dB 3:32 05-Back O The Moon
DR12 -0.05 dB -13.93 dB 3:19 06-Maddox Table
DR9 -3.45 dB -14.18 dB 4:05 07-The Colonial Wing
DR14 0.00 dB -15.37 dB 3:08 08-Grey Victory
DR13 -0.04 dB -17.13 dB 3:07 09-Among The Americans
DR13 -0.23 dB -16.15 dB 3:17 10-Everyone A Puzzle Lover
DR13 0.00 dB -15.85 dB 3:23 11-Cotton Alley
DR12 -1.74 dB -15.68 dB 4:30 12-Daktari
DR12 -0.26 dB -14.06 dB 3:33 13-My Mother The War
DR13 0.00 dB -15.21 dB 3:33 14-Tension Makes A Tangle
DR11 -1.88 dB -15.34 dB 2:18 15-Arbor Day
––––––––––––––––––––––––––––––––––––––––

Number of tracks: 15
Official DR value: DR12

Samplerate: 44100 Hz
Channels: 2
Bits per sample: 16
Bitrate: 894 kbps
Codec: FLAC
================================================================================

CUETools
[CUETools log; Date: 29.12.2016 19:27:34; Version: 2.1.4]
[CTDB TOCID: r44RArZ2wpNf0Vq8FiErCUH0PGQ-] found.
Track | CTDB Status
1 | (91/94) Accurately ripped, or (1/94) differs in 1176 samples @00:10:32-00:10:33
2 | (94/94) Accurately ripped
3 | (92/94) Accurately ripped, or (1/94) differs in 1176 samples @00:06:27-00:06:28
4 | (94/94) Accurately ripped
5 | (93/94) Accurately ripped
6 | (94/94) Accurately ripped
7 | (92/94) Accurately ripped
8 | (94/94) Accurately ripped
9 | (94/94) Accurately ripped
10 | (93/94) Accurately ripped
11 | (93/94) Accurately ripped
12 | (93/94) Accurately ripped
13 | (94/94) Accurately ripped
14 | (93/94) Accurately ripped
15 | (93/94) Accurately ripped
[AccurateRip ID: 001a7467-012fa707-c40b890f] found.
Track [ CRC | V2 ] Status
01 [e251aee4|92749de1] (00+27/27) Accurately ripped
02 [ea14fd9e|ba0e7551] (00+27/27) Accurately ripped
03 [b8e8e07e|cd637974] (00+27/27) Accurately ripped
04 [eee91d6f|48b50708] (00+27/27) Accurately ripped
05 [fa9e655d|43d919b1] (00+27/27) Accurately ripped
06 [30729c0d|1cd75ace] (00+27/27) Accurately ripped
07 [c796478c|e9bbf3dc] (00+27/27) Accurately ripped
08 [d7f587dd|96bad622] (00+27/27) Accurately ripped
09 [232f1c7a|48d23892] (00+27/27) Accurately ripped
10 [577b5bb5|da3b294f] (00+27/27) Accurately ripped
11 [cc77ef60|cd9813ff] (00+27/27) Accurately ripped
12 [90efe6b6|7e01d4c0] (00+27/27) Accurately ripped
13 [13d956ec|90e83f93] (00+27/27) Accurately ripped
14 [f4999545|ebefae0f] (00+27/27) Accurately ripped
15 [6b9bd667|e375cf8f] (00+27/27) Accurately ripped

Track Peak [ CRC32 ] [W/O NULL] [ LOG ]
– 100,0 [69852B47] [B33DD3BF]
01 99,2 [341812E1] [FA08D251] CRC32
02 100,0 [F921ED7C] [92844C51] CRC32
03 95,9 [111F8F46] [AFDA161D] CRC32
04 96,2 [DCA3D091] [11098770] CRC32
05 100,0 [A039386D] [EE6902DA] CRC32
06 99,4 [0DEED3F5] [1D0410A2] CRC32
07 67,2 [D198E74A] [C7314A89] CRC32
08 100,0 [756DC871] [9081EB92] CRC32
09 99,5 [B2E98C51] [B977EFEF] CRC32
10 97,3 [8AB9AC26] [2B82F9AF] CRC32
11 100,0 [123A8AD2] [2CD9D33C] CRC32
12 81,8 [89CB998B] [73BA5738] CRC32
13 97,0 [C3E10144] [FFDC8CA4] CRC32
14 100,0 [9F7E6FDA] [3C3B9559] CRC32
15 80,5 [161DD132] [DADDF144] CRC32

10,000 Maniacs - Original Album Series (2013)

Tracklist CD02 – 1987. In My Tribe:

01. What’s The Matter Here? (04:51)
02. Hey Jack Kerouac (03:26)
03. Like The Weather (03:57)
04. Cherry Tree (03:14)
05. The Painted Desert (03:39)
06. Don’t Talk (03:27)
07. Gun Shy (04:12)
08. My Sister Rose (03:13)
09. A Campfire Song (03:15)
10. City Of Angels (04:17)
11. Verdi Cries (04:21)

Converted to Image with CUETools

EAC
Exact Audio Copy V1.0 beta 3 from 29. August 2011

EAC extraction logfile from 11. June 2014, 14:58

10,000 Maniacs / In My Tribe CD2

Used drive : PLEXTOR CD-R PREMIUM2 Adapter: 4 ID: 0

Read mode : Secure
Utilize accurate stream : Yes
Defeat audio cache : Yes
Make use of C2 pointers : No

Read offset correction : 30
Overread into Lead-In and Lead-Out : Yes
Fill up missing offset samples with silence : Yes
Delete leading and trailing silent blocks : No
Null samples used in CRC calculations : Yes
Used interface : Native Win32 interface for Win NT & 2000
Gap handling : Appended to previous track

Used output format : User Defined Encoder
Selected bitrate : 1024 kBit/s
Quality : High
Add ID3 tag : No
Command line compressor : C:Program Files (x86)Exact Audio CopyFlacflac.exe
Additional command line options : -8 -V -T "ARTIST=%artist%" -T "TITLE=%title%" -T "ALBUM=%albumtitle%" -T "DATE=%year%" -T "TRACKNUMBER=%tracknr%" -T "TOTALTRACKS=%numtracks%" -T "GENRE=%genre%" -T "ALBUMARTIST=%albumartist%" -T "ALBUM ARTIST=%albumartist%" -T "COMMENT=EAC Secure Mode, Test & Copy, AccurateRip, FLAC -8" %source%

TOC of the extracted CD

Track | Start | Length | Start sector | End sector
––––––––––––––––––––––––––––-
1 | 0:00.00 | 4:51.03 | 0 | 21827
2 | 4:51.03 | 3:26.10 | 21828 | 37287
3 | 8:17.13 | 3:56.62 | 37288 | 55049
4 | 12:14.00 | 3:13.48 | 55050 | 69572
5 | 15:27.48 | 3:38.72 | 69573 | 85994
6 | 19:06.45 | 5:04.05 | 85995 | 108799
7 | 24:10.50 | 4:11.65 | 108800 | 127689
8 | 28:22.40 | 3:12.65 | 127690 | 142154
9 | 31:35.30 | 3:14.65 | 142155 | 156769
10 | 34:50.20 | 4:17.38 | 156770 | 176082
11 | 39:07.58 | 4:21.32 | 176083 | 195689

Track 1

Filename D:FLAC1 – What’s The Matter Here.wav

Pre-gap length 0:00:02.00

Peak level 73.6 %
Extraction speed 1.9 X
Track quality 100.0 %
Test CRC 927083A5
Copy CRC 927083A5
Accurately ripped (confidence 12) [A0E103E5] (AR v2)
Copy OK

Track 2

Filename D:FLAC2 – Hey Jack Kerouac.wav

Peak level 59.7 %
Extraction speed 1.8 X
Track quality 100.0 %
Test CRC B5FDEB72
Copy CRC B5FDEB72
Accurately ripped (confidence 12) [88F9B5D9] (AR v2)
Copy OK

Track 3

Filename D:FLAC3 – Like The Weather.wav

Peak level 57.2 %
Extraction speed 1.9 X
Track quality 100.0 %
Test CRC 703943EF
Copy CRC 703943EF
Accurately ripped (confidence 12) [4149DAE3] (AR v2)
Copy OK

Track 4

Filename D:FLAC4 – Cherry Tree.wav

Peak level 89.3 %
Extraction speed 1.9 X
Track quality 100.0 %
Test CRC 01EA0F0F
Copy CRC 01EA0F0F
Accurately ripped (confidence 12) [EDECA5E4] (AR v2)
Copy OK

Track 5

Filename D:FLAC5 – The Painted Desert.wav

Peak level 91.9 %
Extraction speed 1.9 X
Track quality 100.0 %
Test CRC 03F5BFA7
Copy CRC 03F5BFA7
Accurately ripped (confidence 12) [2F9B47B1] (AR v2)
Copy OK

Track 6

Filename D:FLAC6 – Don’t Talk.wav

Peak level 56.6 %
Extraction speed 1.9 X
Track quality 100.0 %
Test CRC 24E225DF
Copy CRC 24E225DF
Accurately ripped (confidence 12) [2DBE3C06] (AR v2)
Copy OK

Track 7

Filename D:FLAC7 – Gun Shy.wav

Peak level 95.3 %
Extraction speed 1.9 X
Track quality 100.0 %
Test CRC 21B9BA0A
Copy CRC 21B9BA0A
Accurately ripped (confidence 12) [508AFFDF] (AR v2)
Copy OK

Track 8

Filename D:FLAC8 – My Sister Rose.wav

Peak level 60.3 %
Extraction speed 1.8 X
Track quality 99.9 %
Test CRC 8963C895
Copy CRC 8963C895
Accurately ripped (confidence 12) [672CDE57] (AR v2)
Copy OK

Track 9

Filename D:FLAC9 – A Campfire Song.wav

Peak level 58.2 %
Extraction speed 1.8 X
Track quality 99.9 %
Test CRC 4E649533
Copy CRC 4E649533
Accurately ripped (confidence 12) [150DEA4C] (AR v2)
Copy OK

Track 10

Filename D:FLAC10 – City Of Angels.wav

Peak level 69.3 %
Extraction speed 1.9 X
Track quality 100.0 %
Test CRC 585B22DF
Copy CRC 585B22DF
Accurately ripped (confidence 12) [7AFEB7D1] (AR v2)
Copy OK

Track 11

Filename D:FLAC11 – Verdi Cries.wav

Peak level 39.5 %
Extraction speed 1.9 X
Track quality 100.0 %
Test CRC 196A939C
Copy CRC 196A939C
Accurately ripped (confidence 12) [5D71AA50] (AR v2)
Copy OK

All tracks accurately ripped

No errors occurred

End of status report

==== Log checksum EF4C209419D6FABCE9D3195FFFB4B8E1DBE483BD3E8DF0D6166DCE3F8EB0BF99 ====

Dynamic Range
foobar2000 1.2.9 / Dynamic Range Meter 1.1.1
log date: 2016-12-29 19:28:11

––––––––––––––––––––––––––––––––––––––––
Analyzed: 10,000 Maniacs / In My Tribe CD2
––––––––––––––––––––––––––––––––––––––––

DR Peak RMS Duration Track
––––––––––––––––––––––––––––––––––––––––
DR17 -2.66 dB -21.46 dB 4:51 01-What’s The Matter Here
DR14 -4.48 dB -19.95 dB 3:26 02-Hey Jack Kerouac
DR15 -4.84 dB -21.50 dB 3:57 03-Like The Weather
DR17 -0.98 dB -20.59 dB 3:14 04-Cherry Tree
DR19 -0.73 dB -21.64 dB 3:39 05-The Painted Desert
DR13 -4.93 dB -19.95 dB 5:04 06-Don’t Talk
DR19 -0.42 dB -21.96 dB 4:12 07-Gun Shy
DR15 -4.39 dB -21.02 dB 3:13 08-My Sister Rose
DR14 -4.69 dB -20.24 dB 3:15 09-A Campfire Song
DR15 -3.18 dB -20.86 dB 4:18 10-City Of Angels
DR12 -8.06 dB -27.39 dB 4:21 11-Verdi Cries
––––––––––––––––––––––––––––––––––––––––

Number of tracks: 11
Official DR value: DR15

Samplerate: 44100 Hz
Channels: 2
Bits per sample: 16
Bitrate: 826 kbps
Codec: FLAC
================================================================================

CUETools
[CUETools log; Date: 29.12.2016 19:28:16; Version: 2.1.4]
[CTDB TOCID: QjlUUXK9HLGsf2I7HiNBlnHVB8c-] found.
Track | CTDB Status
1 | (149/161) Accurately ripped, or (8/161) differs in 4 samples @00:29:04,02:31:63,04:02:08,04:40:56, or (1/161) differs in 2351 samples @00:10:00-00:10:01,01:54:53-01:54:54
2 | (153/161) Accurately ripped, or (8/161) differs in 3 samples @00:52:63,01:18:11,02:19:20
3 | (152/161) Accurately ripped, or (8/161) differs in 7 samples @00:06:65,00:18:16,00:18:54,00:20:12,00:23:70,01:13:25,02:37:47
4 | (151/161) Accurately ripped, or (8/161) differs in 4 samples @00:09:37,00:21:36,01:13:69,01:45:05
5 | (150/161) Accurately ripped, or (8/161) differs in 5 samples @00:08:23,00:18:53,00:21:33,01:58:61,02:51:68
6 | (151/161) Accurately ripped, or (8/161) differs in 6 samples @01:23:44,02:59:45,03:15:16,03:20:29,03:26:42,04:38:27
7 | (151/161) Accurately ripped, or (8/161) differs in 3 samples @00:20:20,03:13:09,03:26:30
8 | (151/161) Accurately ripped, or (8/161) differs in 1 samples @01:54:32
9 | (152/161) Accurately ripped, or (8/161) differs in 4 samples @00:25:18,01:20:17,02:11:37,03:03:38
10 | (150/161) Accurately ripped, or (8/161) differs in 4 samples @01:29:12,01:54:31,02:26:40,03:26:14
11 | (145/161) Accurately ripped, or (8/161) differs in 6 samples @00:48:46,00:57:68,01:10:23,03:49:23,03:49:69,04:10:11
[AccurateRip ID: 0011f55a-009af3d4-a80a310b] found.
Track [ CRC | V2 ] Status
01 [3eed7450|a0e103e5] (00+27/27) Accurately ripped
02 [2e0283cf|88f9b5d9] (00+27/27) Accurately ripped
03 [a223a7ab|4149dae3] (00+27/27) Accurately ripped
04 [f96ee772|edeca5e4] (00+27/27) Accurately ripped
05 [b046a33b|2f9b47b1] (00+27/27) Accurately ripped
06 [0e420787|2dbe3c06] (00+27/27) Accurately ripped
07 [57a695cc|508affdf] (00+27/27) Accurately ripped
08 [0a4b5de9|672cde57] (00+27/27) Accurately ripped
09 [613ced28|150dea4c] (00+27/27) Accurately ripped
10 [8f465649|7afeb7d1] (00+27/27) Accurately ripped
11 [2999646e|5d71aa50] (00+27/27) Accurately ripped

Track Peak [ CRC32 ] [W/O NULL] [ LOG ]
– 95,3 [E33D9363] [2B822496]
01 73,6 [927083A5] [A8BD06C3] CRC32
02 59,7 [B5FDEB72] [28A9FC30] CRC32
03 57,2 [703943EF] [A78B3828] CRC32
04 89,3 [01EA0F0F] [374C9F9B] CRC32
05 91,9 [03F5BFA7] [497F3925] CRC32
06 56,6 [24E225DF] [B10B2866] CRC32
07 95,3 [21B9BA0A] [C133DB5A] CRC32
08 60,3 [8963C895] [397245A8] CRC32
09 58,2 [4E649533] [0F2D8C46] CRC32
10 69,3 [585B22DF] [F537AC11] CRC32
11 39,5 [196A939C] [CA68C534] CRC32

10,000 Maniacs - Original Album Series (2013)

Tracklist CD03 – 1989. Blind Man’s Zoo:

01. Eat For Two (03:31)
02. Please Forgive Us (03:24)
03. The Big Parade (04:01)
04. Trouble Me (03:14)
05. You Happy Puppet (03:38)
06. Headstrong (04:16)
07. Poison In The Well (03:08)
08. Dust Bowl (04:12)
09. The Lion’s Share (03:03)
10. Hateful Hate (04:31)
11. Jubilee (06:07)

Converted to Image with CUETools

EAC
Exact Audio Copy V1.0 beta 3 from 29. August 2011

EAC extraction logfile from 11. June 2014, 16:35

10,000 Maniacs / Blind Man’s Zoo CD3

Used drive : PLEXTOR CD-R PREMIUM2 Adapter: 4 ID: 0

Read mode : Secure
Utilize accurate stream : Yes
Defeat audio cache : Yes
Make use of C2 pointers : No

Read offset correction : 30
Overread into Lead-In and Lead-Out : Yes
Fill up missing offset samples with silence : Yes
Delete leading and trailing silent blocks : No
Null samples used in CRC calculations : Yes
Used interface : Native Win32 interface for Win NT & 2000
Gap handling : Appended to previous track

Used output format : User Defined Encoder
Selected bitrate : 1024 kBit/s
Quality : High
Add ID3 tag : No
Command line compressor : C:Program Files (x86)Exact Audio CopyFlacflac.exe
Additional command line options : -8 -V -T "ARTIST=%artist%" -T "TITLE=%title%" -T "ALBUM=%albumtitle%" -T "DATE=%year%" -T "TRACKNUMBER=%tracknr%" -T "TOTALTRACKS=%numtracks%" -T "GENRE=%genre%" -T "ALBUMARTIST=%albumartist%" -T "ALBUM ARTIST=%albumartist%" -T "COMMENT=EAC Secure Mode, Test & Copy, AccurateRip, FLAC -8" %source%

TOC of the extracted CD

Track | Start | Length | Start sector | End sector
––––––––––––––––––––––––––––-
1 | 0:00.00 | 3:31.23 | 0 | 15847
2 | 3:31.23 | 3:24.40 | 15848 | 31187
3 | 6:55.63 | 4:01.10 | 31188 | 49272
4 | 10:56.73 | 3:14.55 | 49273 | 63877
5 | 14:11.53 | 3:38.12 | 63878 | 80239
6 | 17:49.65 | 4:16.45 | 80240 | 99484
7 | 22:06.35 | 3:08.73 | 99485 | 113657
8 | 25:15.33 | 4:12.47 | 113658 | 132604
9 | 29:28.05 | 3:03.70 | 132605 | 146399
10 | 32:32.00 | 4:31.20 | 146400 | 166744
11 | 37:03.20 | 6:07.20 | 166745 | 194289

Track 1

Filename D:FLAC1 – Eat For Two.wav

Pre-gap length 0:00:02.00

Peak level 94.5 %
Extraction speed 1.9 X
Track quality 100.0 %
Test CRC D77219D0
Copy CRC D77219D0
Accurately ripped (confidence 12) [94C14E1A] (AR v2)
Copy OK

Track 2

Filename D:FLAC2 – Please Forgive Us.wav

Peak level 94.5 %
Extraction speed 1.8 X
Track quality 99.9 %
Test CRC DAB02B6E
Copy CRC DAB02B6E
Accurately ripped (confidence 12) [2D6F9EFD] (AR v2)
Copy OK

Track 3

Filename D:FLAC3 – The Big Parade.wav

Peak level 95.3 %
Extraction speed 1.9 X
Track quality 100.0 %
Test CRC BD1C64FC
Copy CRC BD1C64FC
Accurately ripped (confidence 12) [DFC1949B] (AR v2)
Copy OK

Track 4

Filename D:FLAC4 – Trouble Me.wav

Peak level 73.2 %
Extraction speed 1.9 X
Track quality 100.0 %
Test CRC 7CCD26D9
Copy CRC 7CCD26D9
Accurately ripped (confidence 12) [FF39A759] (AR v2)
Copy OK

Track 5

Filename D:FLAC5 – You Happy Puppet.wav

Peak level 77.7 %
Extraction speed 1.8 X
Track quality 100.0 %
Test CRC 32771C4B
Copy CRC 32771C4B
Accurately ripped (confidence 12) [E07F6999] (AR v2)
Copy OK

Track 6

Filename D:FLAC6 – Headstrong.wav

Peak level 92.7 %
Extraction speed 1.8 X
Track quality 99.9 %
Test CRC 926D5B1B
Copy CRC 926D5B1B
Accurately ripped (confidence 12) [CCF5CBFD] (AR v2)
Copy OK

Track 7

Filename D:FLAC7 – Poison In The Well.wav

Peak level 89.7 %
Extraction speed 1.9 X
Track quality 100.0 %
Test CRC 922167AB
Copy CRC 922167AB
Accurately ripped (confidence 12) [ACEDBB2D] (AR v2)
Copy OK

Track 8

Filename D:FLAC8 – Dust Bowl.wav

Peak level 64.8 %
Extraction speed 1.8 X
Track quality 99.9 %
Test CRC 80239CFF
Copy CRC 80239CFF
Accurately ripped (confidence 12) [F5A60C22] (AR v2)
Copy OK

Track 9

Filename D:FLAC9 – The Lion’s Share.wav

Peak level 84.0 %
Extraction speed 1.8 X
Track quality 99.9 %
Test CRC AFE53A29
Copy CRC AFE53A29
Accurately ripped (confidence 12) [27E500A8] (AR v2)
Copy OK

Track 10

Filename D:FLAC10 – Hateful Hate.wav

Peak level 96.8 %
Extraction speed 1.8 X
Track quality 99.9 %
Test CRC 4B2F5353
Copy CRC 4B2F5353
Accurately ripped (confidence 12) [3A5AB064] (AR v2)
Copy OK

Track 11

Filename D:FLAC11 – Jubilee.wav

Peak level 71.4 %
Extraction speed 1.9 X
Track quality 100.0 %
Test CRC 41AE87D8
Copy CRC 41AE87D8
Accurately ripped (confidence 12) [418BD8AD] (AR v2)
Copy OK

All tracks accurately ripped

No errors occurred

End of status report

==== Log checksum 8C790C94631F56590340DD2493C43A8D7522DE257B3A2585A1DA85E425A19B14 ====

Dynamic Range
foobar2000 1.2.9 / Dynamic Range Meter 1.1.1
log date: 2016-12-29 19:28:31

––––––––––––––––––––––––––––––––––––––––
Analyzed: 10,000 Maniacs / Blind Man’s Zoo CD3
––––––––––––––––––––––––––––––––––––––––

DR Peak RMS Duration Track
––––––––––––––––––––––––––––––––––––––––
DR13 -0.49 dB -16.51 dB 3:31 01-Eat For Two
DR14 -0.49 dB -16.46 dB 3:25 02-Please Forgive Us
DR14 -0.42 dB -17.23 dB 4:01 03-The Big Parade
DR13 -2.71 dB -18.73 dB 3:15 04-Trouble Me
DR13 -2.19 dB -17.41 dB 3:38 05-You Happy Puppet
DR13 -0.65 dB -15.36 dB 4:17 06-Headstrong
DR13 -0.94 dB -16.00 dB 3:09 07-Poison In The Well
DR12 -3.76 dB -19.31 dB 4:13 08-Dust Bowl
DR13 -1.51 dB -16.81 dB 3:04 09-The Lion’s Share
DR14 -0.28 dB -16.05 dB 4:31 10-Hateful Hate
DR12 -2.92 dB -20.28 dB 6:07 11-Jubilee
––––––––––––––––––––––––––––––––––––––––

Number of tracks: 11
Official DR value: DR13

Samplerate: 44100 Hz
Channels: 2
Bits per sample: 16
Bitrate: 865 kbps
Codec: FLAC
================================================================================

CUETools
[CUETools log; Date: 29.12.2016 19:28:38; Version: 2.1.4]
[CTDB TOCID: w.JbPVGWOsFufFSuU_j8F3yUDYs-] found.
Track | CTDB Status
1 | (168/176) Accurately ripped
2 | (171/176) Accurately ripped, or (1/176) differs in 1176 samples @02:45:52-02:45:53
3 | (168/176) Accurately ripped, or (1/176) differs in 1176 samples @00:25:56-00:25:57
4 | (170/176) Accurately ripped
5 | (170/176) Accurately ripped
6 | (168/176) Accurately ripped
7 | (167/176) Accurately ripped
8 | (169/176) Accurately ripped
9 | (170/176) Accurately ripped, or (1/176) differs in 1176 samples @00:06:27-00:06:28
10 | (169/176) Accurately ripped
11 | (168/176) Accurately ripped
[AccurateRip ID: 0010afea-0091c05a-890a1e0b] found.
Track [ CRC | V2 ] Status
01 [d37f2736|94c14e1a] (00+27/27) Accurately ripped
02 [31e79077|2d6f9efd] (00+27/27) Accurately ripped
03 [51d1f9bc|dfc1949b] (00+27/27) Accurately ripped
04 [9dd58242|ff39a759] (00+27/27) Accurately ripped
05 [5fe78105|e07f6999] (00+27/27) Accurately ripped
06 [75d06d97|ccf5cbfd] (00+27/27) Accurately ripped
07 [cfb1bfef|acedbb2d] (00+27/27) Accurately ripped
08 [1293d6e1|f5a60c22] (00+27/27) Accurately ripped
09 [b6443457|27e500a8] (00+27/27) Accurately ripped
10 [de3f2e91|3a5ab064] (00+27/27) Accurately ripped
11 [170c4014|418bd8ad] (00+27/27) Accurately ripped

Track Peak [ CRC32 ] [W/O NULL] [ LOG ]
– 96,8 [97AFB1E8] [411BE4E3]
01 94,5 [D77219D0] [9EC9BE8F] CRC32
02 94,5 [DAB02B6E] [88FE8A21] CRC32
03 95,3 [BD1C64FC] [48317B12] CRC32
04 73,2 [7CCD26D9] [B02D7BFC] CRC32
05 77,7 [32771C4B] [7C8412E4] CRC32
06 92,7 [926D5B1B] [D2C7E996] CRC32
07 89,7 [922167AB] [B9D1339F] CRC32
08 64,8 [80239CFF] [2167A0BD] CRC32
09 84,0 [AFE53A29] [A70C5CEB] CRC32
10 96,8 [4B2F5353] [EF8C9806] CRC32
11 71,4 [41AE87D8] [F7B649B8] CRC32

10,000 Maniacs - Original Album Series (2013)

Tracklist CD04 – 1992. Our Time In Eden:

01. Noah’s Dove (04:31)
02. These Are Days (03:42)
03. Eden (04:09)
04. Few And Far Between (03:16)
05. Stockton Gala Days (04:22)
06. Gold Rush Brides (03:25)
07. Jezebel (04:02)
08. How You’ve Grown (03:41)
09. Candy Everybody Wants (03:08)
10. Tolerance (04:16)
11. Circle Dream (03:27)
12. If You Intend (03:05)
13. I’m Not The Man (03:25)

Converted to Image with CUETools

EAC
Exact Audio Copy V1.0 beta 3 from 29. August 2011

EAC extraction logfile from 11. June 2014, 18:06

10,000 Maniacs / Our Time in Eden CD4

Used drive : PLEXTOR CD-R PREMIUM2 Adapter: 4 ID: 0

Read mode : Secure
Utilize accurate stream : Yes
Defeat audio cache : Yes
Make use of C2 pointers : No

Read offset correction : 30
Overread into Lead-In and Lead-Out : Yes
Fill up missing offset samples with silence : Yes
Delete leading and trailing silent blocks : No
Null samples used in CRC calculations : Yes
Used interface : Native Win32 interface for Win NT & 2000
Gap handling : Appended to previous track

Used output format : User Defined Encoder
Selected bitrate : 1024 kBit/s
Quality : High
Add ID3 tag : No
Command line compressor : C:Program Files (x86)Exact Audio CopyFlacflac.exe
Additional command line options : -8 -V -T "ARTIST=%artist%" -T "TITLE=%title%" -T "ALBUM=%albumtitle%" -T "DATE=%year%" -T "TRACKNUMBER=%tracknr%" -T "TOTALTRACKS=%numtracks%" -T "GENRE=%genre%" -T "ALBUMARTIST=%albumartist%" -T "ALBUM ARTIST=%albumartist%" -T "COMMENT=EAC Secure Mode, Test & Copy, AccurateRip, FLAC -8" %source%

TOC of the extracted CD

Track | Start | Length | Start sector | End sector
––––––––––––––––––––––––––––-
1 | 0:00.00 | 4:31.43 | 0 | 20367
2 | 4:31.43 | 3:42.52 | 20368 | 37069
3 | 8:14.20 | 4:09.25 | 37070 | 55769
4 | 12:23.45 | 3:16.25 | 55770 | 70494
5 | 15:39.70 | 4:22.10 | 70495 | 90154
6 | 20:02.05 | 3:25.63 | 90155 | 105592
7 | 23:27.68 | 4:02.70 | 105593 | 123812
8 | 27:30.63 | 3:41.60 | 123813 | 140447
9 | 31:12.48 | 3:08.15 | 140448 | 154562
10 | 34:20.63 | 4:16.12 | 154563 | 173774
11 | 38:37.00 | 3:27.30 | 173775 | 189329
12 | 42:04.30 | 3:05.18 | 189330 | 203222
13 | 45:09.48 | 3:25.20 | 203223 | 218617

Track 1

Filename D:FLAC1 – Noah’s Dove.wav

Pre-gap length 0:00:02.00

Peak level 100.0 %
Extraction speed 1.8 X
Track quality 99.9 %
Test CRC EB21550C
Copy CRC EB21550C
Accurately ripped (confidence 11) [D3287976] (AR v2)
Copy OK

Track 2

Filename D:FLAC2 – These Are Days.wav

Peak level 100.0 %
Extraction speed 1.9 X
Track quality 100.0 %
Test CRC 8DC7A40E
Copy CRC 8DC7A40E
Accurately ripped (confidence 11) [5112519E] (AR v2)
Copy OK

Track 3

Filename D:FLAC3 – Eden.wav

Peak level 100.0 %
Extraction speed 1.8 X
Track quality 99.9 %
Test CRC 978E25A3
Copy CRC 978E25A3
Accurately ripped (confidence 11) [830F8145] (AR v2)
Copy OK

Track 4

Filename D:FLAC4 – Few and Far Between.wav

Peak level 100.0 %
Extraction speed 1.8 X
Track quality 100.0 %
Test CRC 49F47238
Copy CRC 49F47238
Accurately ripped (confidence 11) [2B632263] (AR v2)
Copy OK

Track 5

Filename D:FLAC5 – Stockton Gala Days.wav

Peak level 100.0 %
Extraction speed 1.9 X
Track quality 100.0 %
Test CRC E06C455B
Copy CRC E06C455B
Accurately ripped (confidence 11) [358B52C2] (AR v2)
Copy OK

Track 6

Filename D:FLAC6 – Gold Rush Brides.wav

Peak level 100.0 %
Extraction speed 1.8 X
Track quality 99.9 %
Test CRC 5044D3C9
Copy CRC 5044D3C9
Accurately ripped (confidence 11) [F3952AE7] (AR v2)
Copy OK

Track 7

Filename D:FLAC7 – Jezebel.wav

Peak level 100.0 %
Extraction speed 1.8 X
Track quality 100.0 %
Test CRC 3A8C845B
Copy CRC 3A8C845B
Accurately ripped (confidence 11) [1FC842AA] (AR v2)
Copy OK

Track 8

Filename D:FLAC8 – How You’ve Grown.wav

Peak level 99.8 %
Extraction speed 1.8 X
Track quality 100.0 %
Test CRC CDDA348D
Copy CRC CDDA348D
Accurately ripped (confidence 11) [BE5A651E] (AR v2)
Copy OK

Track 9

Filename D:FLAC9 – Candy Everybody Wants.wav

Peak level 100.0 %
Extraction speed 1.8 X
Track quality 99.9 %
Test CRC D675B25D
Copy CRC D675B25D
Accurately ripped (confidence 11) [1484D05A] (AR v2)
Copy OK

Track 10

Filename D:FLAC10 – Tolerance.wav

Peak level 100.0 %
Extraction speed 1.8 X
Track quality 100.0 %
Test CRC 383B54F9
Copy CRC 383B54F9
Accurately ripped (confidence 11) [BC4EC2DD] (AR v2)
Copy OK

Track 11

Filename D:FLAC11 – Circle Dream.wav

Peak level 99.4 %
Extraction speed 1.8 X
Track quality 100.0 %
Test CRC 81D510FB
Copy CRC 81D510FB
Accurately ripped (confidence 11) [BE7F1562] (AR v2)
Copy OK

Track 12

Filename D:FLAC12 – If You Intend.wav

Peak level 100.0 %
Extraction speed 1.8 X
Track quality 99.9 %
Test CRC 880E1ED4
Copy CRC 880E1ED4
Accurately ripped (confidence 11) [01EEEDEF] (AR v2)
Copy OK

Track 13

Filename D:FLAC13 – I’m Not the Man.wav

Peak level 100.0 %
Extraction speed 1.9 X
Track quality 100.0 %
Test CRC 4AB7141D
Copy CRC 4AB7141D
Accurately ripped (confidence 11) [C1895839] (AR v2)
Copy OK

All tracks accurately ripped

No errors occurred

End of status report

==== Log checksum DE0E2CAF67EA018521B8993407299E41F71D9B3B48362DFFDA8BAC1108DEF4CB ====

Dynamic Range
foobar2000 1.2.9 / Dynamic Range Meter 1.1.1
log date: 2016-12-29 19:29:18

––––––––––––––––––––––––––––––––––––––––
Analyzed: 10,000 Maniacs / Our Time in Eden CD4
––––––––––––––––––––––––––––––––––––––––

DR Peak RMS Duration Track
––––––––––––––––––––––––––––––––––––––––
DR10 0.00 dB -11.57 dB 4:32 01-Noah’s Dove
DR10 0.00 dB -11.09 dB 3:43 02-These Are Days
DR10 0.00 dB -11.46 dB 4:09 03-Eden
DR10 0.00 dB -11.06 dB 3:16 04-Few and Far Between
DR10 0.00 dB -11.84 dB 4:22 05-Stockton Gala Days
DR10 0.00 dB -11.89 dB 3:26 06-Gold Rush Brides
DR9 0.00 dB -12.88 dB 4:03 07-Jezebel
DR9 -0.02 dB -12.55 dB 3:42 08-How You’ve Grown
DR10 0.00 dB -11.59 dB 3:08 09-Candy Everybody Wants
DR10 0.00 dB -11.73 dB 4:16 10-Tolerance
DR11 -0.05 dB -11.95 dB 3:27 11-Circle Dream
DR10 0.00 dB -11.18 dB 3:05 12-If You Intend
DR11 0.00 dB -12.78 dB 3:25 13-I’m Not the Man
––––––––––––––––––––––––––––––––––––––––

Number of tracks: 13
Official DR value: DR10

Samplerate: 44100 Hz
Channels: 2
Bits per sample: 16
Bitrate: 888 kbps
Codec: FLAC
================================================================================

CUETools
[CUETools log; Date: 29.12.2016 19:29:28; Version: 2.1.4]
[CTDB TOCID: 855zrniJSu1ftRBm6dxegfyClyA-] found.
Track | CTDB Status
1 | (43/44) Accurately ripped
2 | (44/44) Accurately ripped
3 | (43/44) Accurately ripped
4 | (44/44) Accurately ripped
5 | (44/44) Accurately ripped
6 | (43/44) Accurately ripped
7 | (44/44) Accurately ripped
8 | (44/44) Accurately ripped
9 | (44/44) Accurately ripped
10 | (44/44) Accurately ripped
11 | (44/44) Accurately ripped
12 | (44/44) Accurately ripped
13 | (44/44) Accurately ripped
[AccurateRip ID: 00182875-00ef77d9-a90b620d] found.
Track [ CRC | V2 ] Status
01 [ab99c672|d3287976] (00+25/25) Accurately ripped
02 [dd294db1|5112519e] (00+25/25) Accurately ripped
03 [78be2cf2|830f8145] (00+25/25) Accurately ripped
04 [93a87fde|2b632263] (00+25/25) Accurately ripped
05 [9dd26ec6|358b52c2] (00+25/25) Accurately ripped
06 [715499d0|f3952ae7] (00+25/25) Accurately ripped
07 [81fd5adc|1fc842aa] (00+25/25) Accurately ripped
08 [f8442d21|be5a651e] (00+25/25) Accurately ripped
09 [dbb551b0|1484d05a] (00+25/25) Accurately ripped
10 [30a4b511|bc4ec2dd] (00+25/25) Accurately ripped
11 [d52887cd|be7f1562] (00+25/25) Accurately ripped
12 [d6c1b97a|01eeedef] (00+25/25) Accurately ripped
13 [b89a4bbb|c1895839] (00+25/25) Accurately ripped

Track Peak [ CRC32 ] [W/O NULL] [ LOG ]
– 100,0 [6DDB966C] [ECF54775]
01 100,0 [EB21550C] [E17A3B9A] CRC32
02 100,0 [8DC7A40E] [4844516C] CRC32
03 100,0 [978E25A3] [94B16845] CRC32
04 100,0 [49F47238] [52704838] CRC32
05 100,0 [E06C455B] [4B9B792F] CRC32
06 100,0 [5044D3C9] [89D25D73] CRC32
07 100,0 [3A8C845B] [7D7E7908] CRC32
08 99,8 [CDDA348D] [27B52213] CRC32
09 100,0 [D675B25D] [B04AA6D2] CRC32
10 100,0 [383B54F9] [489ECF54] CRC32
11 99,4 [81D510FB] [908CD357] CRC32
12 100,0 [880E1ED4] [25654A8E] CRC32
13 100,0 [4AB7141D] [957FD842] CRC32

10,000 Maniacs - Original Album Series (2013)

Tracklist CD05 – 1993. MTV Unplugged:

01. These Are Days (04:22)
02. Eat For Two (04:12)
03. Candy Everybody Wants (03:19)
04. I’m Not The Man (03:46)
05. Don’t Talk (05:22)
06. Hey Jack Kerouac (03:29)
07. What’s The Matter Here? (04:50)
08. Gold Rush Brides (04:12)
09. Like The Weather (04:15)
10. Trouble Me (03:40)
11. Jezebel (04:20)
12. Because The Night (03:44)
13. Stockton Gala Days (05:25)
14. Noah’s Dove (05:07)

Converted to Image with CUETools

EAC
Exact Audio Copy V1.0 beta 3 from 29. August 2011

EAC extraction logfile from 11. June 2014, 19:21

10,000 Maniacs / MTV Unplugged CD5

Used drive : PLEXTOR CD-R PREMIUM2 Adapter: 4 ID: 0

Read mode : Secure
Utilize accurate stream : Yes
Defeat audio cache : Yes
Make use of C2 pointers : No

Read offset correction : 30
Overread into Lead-In and Lead-Out : Yes
Fill up missing offset samples with silence : Yes
Delete leading and trailing silent blocks : No
Null samples used in CRC calculations : Yes
Used interface : Native Win32 interface for Win NT & 2000
Gap handling : Appended to previous track

Used output format : User Defined Encoder
Selected bitrate : 1024 kBit/s
Quality : High
Add ID3 tag : No
Command line compressor : C:Program Files (x86)Exact Audio CopyFlacflac.exe
Additional command line options : -8 -V -T "ARTIST=%artist%" -T "TITLE=%title%" -T "ALBUM=%albumtitle%" -T "DATE=%year%" -T "TRACKNUMBER=%tracknr%" -T "TOTALTRACKS=%numtracks%" -T "GENRE=%genre%" -T "ALBUMARTIST=%albumartist%" -T "ALBUM ARTIST=%albumartist%" -T "COMMENT=EAC Secure Mode, Test & Copy, AccurateRip, FLAC -8" %source%

TOC of the extracted CD

Track | Start | Length | Start sector | End sector
––––––––––––––––––––––––––––-
1 | 0:00.00 | 4:53.40 | 0 | 22014
2 | 4:53.40 | 4:22.38 | 22015 | 41702
3 | 9:16.03 | 3:19.45 | 41703 | 56672
4 | 12:35.48 | 3:46.27 | 56673 | 73649
5 | 16:22.00 | 5:21.68 | 73650 | 97792
6 | 21:43.68 | 3:48.57 | 97793 | 114949
7 | 25:32.50 | 4:50.48 | 114950 | 136747
8 | 30:23.23 | 4:11.55 | 136748 | 155627
9 | 34:35.03 | 4:14.70 | 155628 | 174747
10 | 38:49.73 | 3:40.55 | 174748 | 191302
11 | 42:30.53 | 4:23.67 | 191303 | 211094
12 | 46:54.45 | 3:43.28 | 211095 | 227847
13 | 50:37.73 | 5:29.15 | 227848 | 252537
14 | 56:07.13 | 5:07.45 | 252538 | 275607

Track 1

Filename D:FLAC1 – These Are Days.wav

Pre-gap length 0:00:02.00

Peak level 93.3 %
Extraction speed 1.9 X
Track quality 100.0 %
Test CRC A208D606
Copy CRC A208D606
Accurately ripped (confidence 11) [105B043B] (AR v2)
Copy OK

Track 2

Filename D:FLAC2 – Eat For Two.wav

Peak level 90.6 %
Extraction speed 1.9 X
Track quality 100.0 %
Test CRC 872C16BF
Copy CRC 872C16BF
Accurately ripped (confidence 11) [9710FFF5] (AR v2)
Copy OK

Track 3

Filename D:FLAC3 – Candy Everybody Wants.wav

Peak level 93.9 %
Extraction speed 1.9 X
Track quality 100.0 %
Test CRC 99F97D2C
Copy CRC 99F97D2C
Accurately ripped (confidence 11) [23141C57] (AR v2)
Copy OK

Track 4

Filename D:FLAC4 – I’m Not The Man.wav

Peak level 93.2 %
Extraction speed 1.9 X
Track quality 100.0 %
Test CRC 76BF61B1
Copy CRC 76BF61B1
Accurately ripped (confidence 11) [E8F43998] (AR v2)
Copy OK

Track 5

Filename D:FLAC5 – Don’t Talk.wav

Peak level 94.9 %
Extraction speed 1.9 X
Track quality 100.0 %
Test CRC CC36E44A
Copy CRC CC36E44A
Accurately ripped (confidence 11) [9CE28F6D] (AR v2)
Copy OK

Track 6

Filename D:FLAC6 – Hey Jack Kerouac.wav

Peak level 95.0 %
Extraction speed 1.8 X
Track quality 99.9 %
Test CRC 1D5880B8
Copy CRC 1D5880B8
Accurately ripped (confidence 11) [342C5BDF] (AR v2)
Copy OK

Track 7

Filename D:FLAC7 – What’s The Matter Here.wav

Peak level 94.7 %
Extraction speed 1.9 X
Track quality 100.0 %
Test CRC 46DD3530
Copy CRC 46DD3530
Accurately ripped (confidence 11) [05BEED6E] (AR v2)
Copy OK

Track 8

Filename D:FLAC8 – Gold Rush Brides.wav

Peak level 89.0 %
Extraction speed 1.8 X
Track quality 100.0 %
Test CRC 18320373
Copy CRC 18320373
Accurately ripped (confidence 11) [6CD38896] (AR v2)
Copy OK

Track 9

Filename D:FLAC9 – Like The Weather.wav

Peak level 89.2 %
Extraction speed 1.8 X
Track quality 99.9 %
Test CRC F53980C4
Copy CRC F53980C4
Accurately ripped (confidence 11) [4F856E47] (AR v2)
Copy OK

Track 10

Filename D:FLAC10 – Trouble Me.wav

Peak level 85.9 %
Extraction speed 1.8 X
Track quality 99.9 %
Test CRC F292D44A
Copy CRC F292D44A
Accurately ripped (confidence 11) [79110909] (AR v2)
Copy OK

Track 11

Filename D:FLAC11 – Jezebel.wav

Peak level 82.9 %
Extraction speed 1.8 X
Track quality 100.0 %
Test CRC 908414D0
Copy CRC 908414D0
Accurately ripped (confidence 11) [B1B15D39] (AR v2)
Copy OK

Track 12

Filename D:FLAC12 – Because The Night.wav

Peak level 89.1 %
Extraction speed 1.8 X
Track quality 100.0 %
Test CRC 904F655D
Copy CRC 904F655D
Accurately ripped (confidence 11) [217EAA39] (AR v2)
Copy OK

Track 13

Filename D:FLAC13 – Stockton Gala Days.wav

Peak level 88.8 %
Extraction speed 1.8 X
Track quality 100.0 %
Test CRC 22A5B719
Copy CRC 22A5B719
Accurately ripped (confidence 12) [36BA51B6] (AR v2)
Copy OK

Track 14

Filename D:FLAC14 – Noah’s Dove.wav

Peak level 85.4 %
Extraction speed 1.9 X
Track quality 100.0 %
Test CRC 46728868
Copy CRC 46728868
Accurately ripped (confidence 11) [B86993E1] (AR v2)
Copy OK

All tracks accurately ripped

No errors occurred

End of status report

==== Log checksum C820CC9EAED51BC39ABC2D89F544F5EBCC8BC73E681BB92BBDBB3C0CC1EEDB19 ====

Dynamic Range
foobar2000 1.2.9 / Dynamic Range Meter 1.1.1
log date: 2016-12-29 19:27:24

––––––––––––––––––––––––––––––––––––––––
Analyzed: 10,000 Maniacs / MTV Unplugged CD5
––––––––––––––––––––––––––––––––––––––––

DR Peak RMS Duration Track
––––––––––––––––––––––––––––––––––––––––
DR10 -0.60 dB -12.21 dB 4:54 01-These Are Days
DR11 -0.85 dB -13.18 dB 4:23 02-Eat For Two
DR9 -0.54 dB -11.27 dB 3:20 03-Candy Everybody Wants
DR11 -0.61 dB -14.32 dB 3:46 04-I’m Not The Man
DR8 -0.45 dB -10.36 dB 5:22 05-Don’t Talk
DR8 -0.44 dB -9.56 dB 3:49 06-Hey Jack Kerouac
DR9 -0.47 dB -10.76 dB 4:51 07-What’s The Matter Here
DR9 -1.01 dB -13.06 dB 4:12 08-Gold Rush Brides
DR9 -0.99 dB -11.79 dB 4:15 09-Like The Weather
DR9 -1.32 dB -12.78 dB 3:41 10-Trouble Me
DR12 -1.62 dB -17.28 dB 4:24 11-Jezebel
DR8 -1.00 dB -11.56 dB 3:43 12-Because The Night
DR8 -1.03 dB -10.66 dB 5:29 13-Stockton Gala Days
DR12 -1.37 dB -16.67 dB 5:08 14-Noah’s Dove
––––––––––––––––––––––––––––––––––––––––

Number of tracks: 14
Official DR value: DR10

Samplerate: 44100 Hz
Channels: 2
Bits per sample: 16
Bitrate: 882 kbps
Codec: FLAC
================================================================================

CUETools
[CUETools log; Date: 29.12.2016 19:27:16; Version: 2.1.4]
[CTDB TOCID: joJMAZTiI.Gzb7PyTSXcHmWI5Ws-] found.
Track | CTDB Status
1 | (426/433) Accurately ripped
2 | (429/433) Accurately ripped
3 | (429/433) Accurately ripped
4 | (428/433) Accurately ripped
5 | (426/433) Accurately ripped
6 | (425/433) Accurately ripped
7 | (423/433) Accurately ripped
8 | (424/433) Accurately ripped
9 | (426/433) Accurately ripped
10 | (426/433) Accurately ripped
11 | (425/433) Accurately ripped
12 | (423/433) Accurately ripped
13 | (424/433) Accurately ripped
14 | (417/433) Accurately ripped
[AccurateRip ID: 001f02ac-014a9bc3-ce0e5a0e] found.
Track [ CRC | V2 ] Status
01 [20c3226e|105b043b] (00+26/28) Accurately ripped
02 [e75c935e|9710fff5] (00+26/28) Accurately ripped
03 [23b7ba54|23141c57] (00+26/28) Accurately ripped
04 [0e1e2483|e8f43998] (00+26/28) Accurately ripped
05 [f541c4c4|9ce28f6d] (00+26/28) Accurately ripped
06 [ab808158|342c5bdf] (00+26/28) Accurately ripped
07 [cbcde074|05beed6e] (00+26/28) Accurately ripped
08 [827bbc32|6cd38896] (00+26/28) Accurately ripped
09 [7e2f6ed7|4f856e47] (00+26/28) Accurately ripped
10 [af2d6ff2|79110909] (00+26/28) Accurately ripped
11 [7b4ab617|b1b15d39] (00+26/28) Accurately ripped
12 [8a3896be|217eaa39] (00+26/28) Accurately ripped
13 [55d7b1d2|36ba51b6] (00+27/29) Accurately ripped
14 [056c9844|b86993e1] (00+25/27) Accurately ripped
Offsetted by 22:
01 [272842b4] (00/28) No match (V2 was not tested)
02 [9c4e50ae] (00/28) No match
03 [5d114973] (00/28) No match
04 [63e8edf1] (00/28) No match
05 [4cf81862] (00/28) No match
06 [ca8eccf6] (00/28) No match
07 [38ea1e36] (00/28) No match
08 [9dd8cde6] (00/28) No match
09 [33666036] (00/28) No match
10 [00e36169] (00/28) No match
11 [fbd771ef] (00/28) No match
12 [03279830] (00/28) No match
13 [aa54b203] (00/29) No match
14 [6212c54a] (00/27) No match
Offsetted by 33:
01 [41d5797d] (00/28) No match
02 [fd2cd9c4] (00/28) No match (V2 was not tested)
03 [a30d1aa3] (00/28) No match
04 [34cc73db] (00/28) No match
05 [1564106c] (00/28) No match
06 [31d9da88] (00/28) No match
07 [817d77fa] (00/28) No match
08 [142d8324] (00/28) No match
09 [546e1b4d] (00/28) No match
10 [d3ebfeec] (00/28) No match
11 [f7e002ba] (00/28) No match
12 [f540cdc3] (00/28) No match
13 [f155e1bb] (00/29) No match
14 [009df886] (00/27) No match
Offsetted by 44:
01 [c72e0476] (00/28) No match
02 [f0b4b9f7] (00/28) No match
03 [d913c827] (00/28) No match (V2 was not tested)
04 [32b09f23] (00/28) No match
05 [16602afe] (00/28) No match
06 [011a9619] (00/28) No match
07 [1e809bdc] (00/28) No match
08 [8f8f9b98] (00/28) No match
09 [551dfe9d] (00/28) No match
10 [a118861c] (00/28) No match
11 [d77ed4cd] (00/28) No match
12 [25ee12a1] (00/28) No match
13 [57631c0d] (00/29) No match
14 [855b39e0] (00/27) No match
Offsetted by 55:
01 [da4f5671] (00/28) No match
02 [fe46b519] (00/28) No match
03 [6347525d] (00/28) No match
04 [5827c2fd] (00/28) No match (V2 was not tested)
05 [aee66224] (00/28) No match
06 [e30c4472] (00/28) No match
07 [380effd8] (00/28) No match
08 [37138dac] (00/28) No match
09 [b412b857] (00/28) No match
10 [54ead14a] (00/28) No match
11 [9df0dc6f] (00/28) No match
12 [97aba7c1] (00/28) No match
13 [fefe6410] (00/29) No match
14 [b792c4c1] (00/27) No match
Offsetted by 66:
01 [b4c81499] (00/28) No match
02 [ed2471da] (00/28) No match
03 [0ce625e0] (00/28) No match
04 [db6617c4] (00/28) No match
05 [5386a516] (00/28) No match (V2 was not tested)
06 [b7a7ff1f] (00/28) No match
07 [64f7dca7] (00/28) No match
08 [20daac91] (00/28) No match
09 [fcdf85c5] (00/28) No match
10 [cd3311c0] (00/28) No match
11 [d2d6c196] (00/28) No match
12 [2ba0e86c] (00/28) No match
13 [f0b72f24] (00/29) No match
14 [0e474fdd] (00/27) No match
Offsetted by 77:
01 [59f33e66] (00/28) No match
02 [3580e2eb] (00/28) No match
03 [31b74ba8] (00/28) No match
04 [7b0b60a4] (00/28) No match
05 [b2f28547] (00/28) No match
06 [762c7bc9] (00/28) No match (V2 was not tested)
07 [e0968a91] (00/28) No match
08 [402e83de] (00/28) No match
09 [3739360a] (00/28) No match
10 [ad704aea] (00/28) No match
11 [8804b4db] (00/28) No match
12 [04715972] (00/28) No match
13 [418f611f] (00/29) No match
14 [8747f348] (00/27) No match
Offsetted by 88:
01 [f5101301] (00/28) No match
02 [8f5e58b2] (00/28) No match
03 [a22fa8bf] (00/28) No match
04 [bfcafecf] (00/28) No match
05 [d2318b78] (00/28) No match
06 [b7a3255f] (00/28) No match
07 [d4b3fd44] (00/28) No match (V2 was not tested)
08 [8fde088d] (00/28) No match
09 [6ca77146] (00/28) No match
10 [da36d849] (00/28) No match
11 [070f64b9] (00/28) No match
12 [630a30b6] (00/28) No match
13 [c34d8fe2] (00/29) No match
14 [32a9ae18] (00/27) No match
Offsetted by 99:
01 [1ae21311] (00/28) No match
02 [8426f91d] (00/28) No match
03 [8e42c43d] (00/28) No match
04 [acd93875] (00/28) No match
05 [917128ea] (00/28) No match
06 [1087c00a] (00/28) No match
07 [f998c0e3] (00/28) No match
08 [5fb2b1aa] (00/28) No match (V2 was not tested)
09 [d48e5a68] (00/28) No match
10 [51fb7d75] (00/28) No match
11 [a2b688d9] (00/28) No match
12 [bc3f54e9] (00/28) No match
13 [a16d0758] (00/29) No match
14 [d81cb181] (00/27) No match
Offsetted by 110:
01 [ac1294fd] (00/28) No match
02 [6c278131] (00/28) No match
03 [f3b6c0d6] (00/28) No match
04 [9c6441cf] (00/28) No match
05 [df2278f2] (00/28) No match
06 [3035458d] (00/28) No match
07 [0dc446e2] (00/28) No match
08 [9c6a77fb] (00/28) No match
09 [0a1d6842] (00/28) No match (V2 was not tested)
10 [d286aa78] (00/28) No match
11 [894a9114] (00/28) No match
12 [a120e969] (00/28) No match
13 [e918101a] (00/29) No match
14 [4868fcbd] (00/27) No match
Offsetted by 121:
01 [0f7bc538] (00/28) No match
02 [d0dccfbe] (00/28) No match
03 [bccff68f] (00/28) No match
04 [87dd4115] (00/28) No match
05 [4a6fd5c0] (00/28) No match
06 [32bb874a] (00/28) No match
07 [4a4f2b56] (00/28) No match
08 [a987cb7b] (00/28) No match
09 [b09e4d4b] (00/28) No match
10 [de423f9d] (00/28) No match (V2 was not tested)
11 [f3165f35] (00/28) No match
12 [a310c239] (00/28) No match
13 [71a67815] (00/29) No match
14 [42e5bf78] (00/27) No match
Offsetted by 132:
01 [71a7f0be] (00/28) No match
02 [2025c32e] (00/28) No match
03 [d3030f2d] (00/28) No match
04 [3b3a6ac0] (00/28) No match
05 [76bec8d9] (00/28) No match
06 [0a39ccb6] (00/28) No match
07 [027aece0] (00/28) No match
08 [ed324268] (00/28) No match
09 [cc7146ba] (00/28) No match
10 [b04f79b1] (00/28) No match
11 [11152667] (00/28) No match (V2 was not tested)
12 [2bb85dbf] (00/28) No match
13 [b89c26ea] (00/29) No match
14 [e23c99a2] (00/27) No match
Offsetted by 143:
01 [def45428] (00/28) No match
02 [8ca101f4] (00/28) No match
03 [52c58ad3] (00/28) No match
04 [daa2c450] (00/28) No match
05 [e4fc77db] (00/28) No match
06 [8db6e83b] (00/28) No match
07 [01aafe21] (00/28) No match
08 [abc4d490] (00/28) No match
09 [e1517c94] (00/28) No match
10 [e43d1dff] (00/28) No match
11 [6bb761cc] (00/28) No match
12 [25dc0d53] (00/28) No match (V2 was not tested)
13 [b8b1826b] (00/29) No match
14 [883dfe27] (00/27) No match
Offsetted by 154:
01 [e1c6141f] (00/28) No match
02 [b46582f3] (00/28) No match
03 [ddb91dee] (00/28) No match
04 [d4d3af88] (00/28) No match
05 [c5e01bf2] (00/28) No match
06 [998d04dd] (00/28) No match
07 [df33526f] (00/28) No match
08 [7060170a] (00/28) No match
09 [3718fed0] (00/28) No match
10 [31e8a541] (00/28) No match
11 [e80ba861] (00/28) No match
12 [c08bb14b] (00/28) No match
13 [8450e980] (00/29) No match (V2 was not tested)
14 [d0132864] (00/27) No match
Offsetted by 165:
01 [888e576b] (00/28) No match
02 [74529165] (00/28) No match
03 [60ef73dd] (00/28) No match
04 [5e386d6a] (00/28) No match
05 [7fbcb4fe] (00/28) No match
06 [81859ba9] (00/28) No match
07 [138613bf] (00/28) No match
08 [b52efbdc] (00/28) No match
09 [2883a178] (00/28) No match
10 [573df68f] (00/28) No match
11 [ca38d023] (00/28) No match
12 [646a78bc] (00/28) No match
13 [b32b9a9d] (00/29) No match
14 [ef17dc83] (00/27) No match (V2 was not tested)

Track Peak [ CRC32 ] [W/O NULL] [ LOG ]
– 95,0 [49337BFB] [4BFBD07B]
01 93,3 [A208D606] [472F7C85] CRC32
02 90,6 [872C16BF] [A54C194A] CRC32
03 93,9 [99F97D2C] [109799EE] CRC32
04 93,2 [76BF61B1] [6F95CA32] CRC32
05 94,9 [CC36E44A] [9160945F] CRC32
06 95,0 [1D5880B8] [D0242328] CRC32
07 94,7 [46DD3530] [E2F215AD] CRC32
08 89,0 [18320373] [5D9644A4] CRC32
09 89,2 [F53980C4] [BB5BD2D0] CRC32
10 85,9 [F292D44A] [F226C78F] CRC32
11 82,9 [908414D0] [56BDDD21] CRC32
12 89,1 [904F655D] [8B84C3AE] CRC32
13 88,8 [22A5B719] [1935658B] CRC32
14 85,4 [46728868] [892F4FF5] CRC32

10,000 Maniacs - Original Album Series (2013)

All thanks go to original releaser Sket4er

10,000 Maniacs – Original Album Series (2013) Download, Warez, DDL, Free, Full Album, Torrent, Legal.

Download


  • Recent Posts

  • Recent Tags