Амега – Вверх (часть 1) (1999) | ViralVideoPk

Daily Dose of Free Downloads

Амега – Вверх (часть 1) (1999)

Download

Амега - Вверх (часть 1) (1999)

Амега – Вверх (часть 1) (1999)
EAC:FLAC-LOG-CUE | 311 MB | MP3 320 CBR | 110 MB | Artwork
Europop, Pop Rock | ОРТ-Рекордс | ОРТ CD 0054-99

The group "Amega" was founded in the year 1998. The team included: Oleg Dobrynin (vocals, keyboards), former soloist of the group Lyceum Elena Perova (vocals, guitar) and Alexey Romanov (vocals). Debut performance was held June 28, 1998 in Luzhniki at the World Youth Games. This date is considered the birthday of the team. Songs Legs and Fly occupied leading positions in all national charts. The musicians themselves called their style "pop-rock" and only "alive". In 1999 the group released their first album "Up. Part 1 ". In the year 2000 is the second album by the band up. Part 2 ". Creativity "Amega" differed from other bands deep meaningful lyrics and original arrangements. That is why their songs became popular with listeners of all ages. Musicians have traveled on tours all over the country and the near abroad. In 2000 year team left Elena Perova, and in 2001-Alexei Romanov. So the team collapsed, the cause of which was the lack of understanding among team members.

Tracklist:
01.Ноги (4:13)
02.Солнце встало (3:45)
03.Москва (4:09)
04.Облака (4:21)
05.Лететь (4:29)
06.Стою на краю… (3:34)
07.На небеса (4:00)
08.Я где-то… (4:25)
09.Новый год (3:58) feat. Блестящие

EAC Log
Exact Audio Copy V1.3 from 2. September 2016

EAC extraction logfile from 24. December 2016, 1:44

Амега / Вверх (часть 1)

Used drive : PIONEER DVD-RW DVR-XD11 Adapter: 8 ID: 6

Read mode : Secure
Utilize accurate stream : Yes
Defeat audio cache : Yes
Make use of C2 pointers : No

Read offset correction : 702
Overread into Lead-In and Lead-Out : No
Fill up missing offset samples with silence : Yes
Delete leading and trailing silent blocks : No
Null samples used in CRC calculations : Yes
Used interface : Installed external ASPI interface

Used output format : User Defined Encoder
Selected bitrate : 1024 kBit/s
Quality : High
Add ID3 tag : No
Command line compressor : ….codecsflac.exe
Additional command line options : -T "comment=Exclusive Sounds for Avaxhome" -0 -V %source%

TOC of the extracted CD

Track | Start | Length | Start sector | End sector
––––––––––––––––––––––––––––-
1 | 0:00.00 | 4:12.54 | 0 | 18953
2 | 4:12.54 | 3:44.57 | 18954 | 35810
3 | 7:57.36 | 4:08.69 | 35811 | 54479
4 | 12:06.30 | 4:20.49 | 54480 | 74028
5 | 16:27.04 | 4:29.14 | 74029 | 94217
6 | 20:56.18 | 3:34.23 | 94218 | 110290
7 | 24:30.41 | 4:00.00 | 110291 | 128290
8 | 28:30.41 | 4:24.42 | 128291 | 148132
9 | 32:55.08 | 3:57.38 | 148133 | 165945

Range status and errors

Selected range

Filename C:RipsАмега – Вверх (часть 1).wav

Peak level 98.8 %
Extraction speed 1.7 X
Range quality 100.0 %
Test CRC F0102BAF
Copy CRC F0102BAF
Copy OK

No errors occurred

AccurateRip summary

Track 1 accurately ripped (confidence 1) [CCD9EE41] (AR v2)
Track 2 accurately ripped (confidence 1) [C7A115D3] (AR v2)
Track 3 accurately ripped (confidence 1) [DB317835] (AR v2)
Track 4 accurately ripped (confidence 1) [169DC949] (AR v2)
Track 5 accurately ripped (confidence 1) [CE4FFF39] (AR v2)
Track 6 accurately ripped (confidence 1) [8E05D49C] (AR v2)
Track 7 accurately ripped (confidence 1) [D786519B] (AR v2)
Track 8 accurately ripped (confidence 1) [5D1556AB] (AR v2)
Track 9 accurately ripped (confidence 1) [3AD16CA6] (AR v2)

All tracks accurately ripped

End of status report

–– AcoustID Plugin V1.2.0

Total fingerprints: 9

–– CUETools DB Plugin V2.1.6

[CTDB TOCID: Zh7iBlKVIDhdAHnvobMbvPuk04w-] found
Submit result: Zh7iBlKVIDhdAHnvobMbvPuk04w- has been confirmed
Track | CTDB Status
1 | (3/3) Accurately ripped
2 | (3/3) Accurately ripped
3 | (3/3) Accurately ripped
4 | (3/3) Accurately ripped
5 | (3/3) Accurately ripped
6 | (3/3) Accurately ripped
7 | (3/3) Accurately ripped
8 | (3/3) Accurately ripped
9 | (3/3) Accurately ripped

==== Log checksum 3D832550159F0C8676BED255BDBF3EC594815CD789DAF8AFF5E3BE1C1795F8AE ====

Амега – Вверх (часть 1) (1999) Download, Warez, DDL, Free, Full Album, Torrent, Legal.

Download


  • Recent Posts

  • Recent Tags